Jump to content
🪐 MY UNIVERSE | COLDPLAY X BTS | OUT SEPTEMBER 14TH 🛰

The Butterfly Package - AHFOD Live Album/Movie


Recommended Posts

  • Replies 549
  • Created
  • Last Reply

Top Posters In This Topic

iTunes has 1080p version? Did you watch it by any chance is it better than DVD? Even i am looking for downloads
I saw the preview from the store and it looks way better. I'm still looking for download links as well.

 

Sent from my SM-G965U using Tapatalk

Link to post
Share on other sites

friends, I have a problem with the file, it is supposed to be seen on iTunes, but since I downloaded it, it does not play anything, I downloaded it again, but it's still the same, given the size of the movie, I think I'll pass it on, if the forum allows it, via utorrent, I will wait for confirmation if you allow me to share the torrent file 06.thumb.jpg.ecc578932eccc6be31c3ac4298a35c98.jpg

01.jpg.759457ca4d30d0480620022bf0512c23.jpg

02.thumb.jpg.2cbc467dbb35c05b5a8fdd4e14bc0955.jpg

03.thumb.jpg.f508b93349a863029e379fe7f6f2d5c0.jpg

04.thumb.jpg.64f55e59f03c8ea78b26daf3892739bd.jpg

05.thumb.jpg.c6e77d6102cb6a09dfd83992246c150a.jpg

  • Like 1
Link to post
Share on other sites

This is the technical sheet that I was able to draw with MEDIA INFO

 

 

 

Format : MPEG-4

Codec ID : M4V

File size : 4.17 GiB

Duration : 2h 0mn

Overall bit rate : 4 969 Kbps

Movie name : Coldplay: Live In São Paulo

Performer : Coldplay

Genre : Concert Films

Encoded date : UTC 2018-12-07 08:00:00

Tagged date : UTC 2018-11-21 11:57:51

Cover : Yes

cnID : 1440072865

atID : 471744

geID : 4422

desc : Long-term Coldplay collaborator Mat Whitecross directs 'Live In São Paulo' an exhilarating concert film captured at the climax of the band's record-breaking 'A Head Full Of Dreams Tour'

hdvd : 2

stik : 9

purd : 2018-12-07 01:21:56

sonm : Coldplay: Live In São Paulo

soar : Coldplay

iTunEXTC : cl-movie|Sin Calificación|900|

ldes : Long-term Coldplay collaborator Mat Whitecross directs 'Live In São Paulo' an exhilarating concert film captured at the climax of the band's record-breaking 'A Head Full Of Dreams Tour'

iTunMOVI : <?xml version="1.0" encoding="UTF-8" standalone="no"?> / <!DOCTYPE plist PUBLIC "-//Apple Computer//DTD PLIST 1.0//EN" "http://www.apple.com/DTDs/PropertyList-1.0.dtd"> / <plist version="1.0"> / <dict> / <key>studio</key><string>Parlophone UK</string> / <key>cast</key> / <array> / </array> / <key>directors</key> / <array> / </array> / <key>codirectors</key> / <array> / </array> / <key>producers</key> / <array> / </array> / <key>screenwriters</key> / <array> / </array> / </dict> / </plist>

 

Video #1

ID : 1

Format : AVC

Format/Info : Advanced Video Codec

Format profile : [email protected]

Format settings, CABAC : Yes

Format settings, ReFrames : 5 frames

Codec ID : drmi

Duration : 2h 0mn

Bit rate mode : Variable

Bit rate : 4 796 Kbps

Width : 1 920 pixels

Height : 816 pixels

Display aspect ratio : 2.35:1

Frame rate mode : Constant

Frame rate : 25.000 fps

Color space : YUV

Chroma subsampling : 4:2:0

Bit depth : 8 bits

Scan type : Progressive

Bits/(Pixel*Frame) : 0.122

Stream size : 4.02 GiB (97%)

Title : Core Media Video

Language : English

Encoded date : UTC 2018-11-21 11:57:37

Tagged date : UTC 2018-11-21 11:57:51

Color primaries : BT.709-5, BT.1361, IEC 61966-2-4, SMPTE RP177

Transfer characteristics : BT.709-5, BT.1361

Matrix coefficients : BT.709-5, BT.1361, IEC 61966-2-4 709, SMPTE RP177

 

Video #2

ID : 5

Format : M-JPEG

Codec ID : jpeg

Duration : 2h 0mn

Bit rate mode : Variable

Bit rate : 5 691 bps

Width : 640 pixels

Height : 272 pixels

Display aspect ratio : 1.855

Frame rate mode : Variable

Frame rate : 0.003 fps

Minimum frame rate : 0.002 fps

Maximum frame rate : 0.009 fps

Bits/(Pixel*Frame) : 10.897

Stream size : 5.43 MiB (0%)

Title : Core Media Video

Encoded date : UTC 2018-11-21 11:57:37

Tagged date : UTC 2018-11-21 11:57:51

 

Audio

ID : 2

Format : AAC

Format/Info : Advanced Audio Codec

Format version : Version 4

Format profile : LC

Format settings, SBR : No

Codec ID : 40

Duration : 2h 0mn

Bit rate mode : Variable

Bit rate : 160 Kbps

Maximum bit rate : 218 Kbps

Channel(s) : 2 channels

Channel positions : Front: L R

Sampling rate : 48.0 KHz

Bit depth : 16 bits

Stream size : 138 MiB (3%)

Title : Core Media Audio

Language : English

Encoded date : UTC 2018-11-21 11:57:37

Tagged date : UTC 2018-11-21 11:57:51

Encryption : iTunes

 

Text

ID : 4

Format : Timed text

Codec ID : tx3g

Duration : 2h 0mn

Bit rate mode : Variable

Bit rate : 2 bps

Stream size : 1.36 KiB (0%)

Title : Core Media Text

Language : English

Encoded date : UTC 2018-11-21 11:57:37

Tagged date : UTC 2018-11-21 11:57:51

Link to post
Share on other sites
Audio

ID : 2

Format : AAC

Format/Info : Advanced Audio Codec

Format version : Version 4

Format profile : LC

Format settings, SBR : No

Codec ID : 40

Duration : 2h 0mn

Bit rate mode : Variable

Bit rate : 160 Kbps

Maximum bit rate : 218 Kbps

Channel(s) : 2 channels

Channel positions : Front: L R

Sampling rate : 48.0 KHz

Bit depth : 16 bits

Stream size : 138 MiB (3%)

Title : Core Media Audio

Language : English

Encoded date : UTC 2018-11-21 11:57:37

Tagged date : UTC 2018-11-21 11:57:51

Encryption : iTunes

 

Well, I hope the audio quality of the physical DVD is better than that. I hope for a true LPCM lossless audio track.

No interest to extract the audio part of the gig with this lossy iTunes quality.

Link to post
Share on other sites
friends, I have a problem with the file, it is supposed to be seen on iTunes, but since I downloaded it, it does not play anything, I downloaded it again, but it's still the same, given the size of the movie, I think I'll pass it on, if the forum allows it, via utorrent, I will wait for confirmation if you allow me to share the torrent file [ATTACH=full]8094[/ATTACH] [ATTACH=full]8095[/ATTACH] [ATTACH=full]8096[/ATTACH] [ATTACH=full]8097[/ATTACH] [ATTACH=full]8098[/ATTACH] [ATTACH=full]8099[/ATTACH]

 

Could you share it? By PM maybe?

Link to post
Share on other sites

who would like to download it and verify on their own if they can do something to reproduce it, would be a great help, I already downloaded it and downloaded it from itunes but still the same, I pass them via the torrent file so they can download it, just if I ask you for discretion, because although I do not think there are any problems with copyrigth, if you wanted to preserve your anonymity as much as possible, just stay in the colplaying community

Link to post
Share on other sites
who would like to download it and verify on their own if they can do something to reproduce it, would be a great help, I already downloaded it and downloaded it from itunes but still the same, I pass them via the torrent file so they can download it, just if I ask you for discretion, because although I do not think there are any problems with copyrigth, if you wanted to preserve your anonymity as much as possible, just stay in the colplaying community

 

Could you share it with me by PM too?

Link to post
Share on other sites
who would like to download it and verify on their own if they can do something to reproduce it, would be a great help, I already downloaded it and downloaded it from itunes but still the same, I pass them via the torrent file so they can download it, just if I ask you for discretion, because although I do not think there are any problems with copyrigth, if you wanted to preserve your anonymity as much as possible, just stay in the colplaying community

 

 

Could you share it with me by PM too, pls?

Link to post
Share on other sites
who would like to download it and verify on their own if they can do something to reproduce it, would be a great help, I already downloaded it and downloaded it from itunes but still the same, I pass them via the torrent file so they can download it, just if I ask you for discretion, because although I do not think there are any problems with copyrigth, if you wanted to preserve your anonymity as much as possible, just stay in the colplaying community

 

 

Could you send me by PM too?

 

They have not even launched in Brazil, Neither on itunes.

Link to post
Share on other sites
who would like to download it and verify on their own if they can do something to reproduce it, would be a great help, I already downloaded it and downloaded it from itunes but still the same, I pass them via the torrent file so they can download it, just if I ask you for discretion, because although I do not think there are any problems with copyrigth, if you wanted to preserve your anonymity as much as possible, just stay in the colplaying community

 

Could you send me by PM? I hope I can do something to fix this!

Link to post
Share on other sites

I have the 720p version, with the 5.1 Dolby Digital track from the DVD. I'm uploading this in the night (Chilean night) but you can send me a DM now and i send the link after the upload is already. I will upload in google drive because Mega sucks. ❤

  • Like 2
Link to post
Share on other sites
who would like to download it and verify on their own if they can do something to reproduce it, would be a great help, I already downloaded it and downloaded it from itunes but still the same, I pass them via the torrent file so they can download it, just if I ask you for discretion, because although I do not think there are any problems with copyrigth, if you wanted to preserve your anonymity as much as possible, just stay in the colplaying community

 

Sure, I just wanna watch it! hehe I can give it a try on solving the playback issue...let's hope it works!

Link to post
Share on other sites

Create an account or sign in to comment

You need to be a member in order to leave a comment

Create an account

Sign up for a new account in our community. It's easy!

Register a new account

Sign in

Already have an account? Sign in here.

Sign In Now



×
×
  • Create New...