Jump to content
🎉 WATCH COLDPLAY LIVE AT iHEART RADIO FESTIVAL 2020 🎉
MickCas

The Butterfly Package - AHFOD Live Album/Movie

Recommended Posts

720p 5.1

*link removed*

 

Thecnical Dates

 

Format : Matroska

File size : 3.75 GiB

Duration : 2h 0mn

Overall bit rate : 4 470 Kbps

Encoded date : UTC 2018-12-08 16:47:31

Writing application : mkvmerge v25.0.0 ('Prog Noir') 32-bit

Writing library : libebml v1.3.6 + libmatroska v1.4.9

 

Video

ID : 1

Format : AVC

Format/Info : Advanced Video Codec

Format profile : [email protected]

Format settings, CABAC : No

Format settings, ReFrames : 2 frames

Muxing mode : Container [email protected]

Codec ID : V_MPEG4/ISO/AVC

Duration : 2h 0mn

Bit rate : 3 933 Kbps

Width : 960 pixels

Height : 544 pixels

Display aspect ratio : 2.35:1

Frame rate : 25.000 fps

Color space : YUV

Chroma subsampling : 4:2:0

Bit depth : 8 bits

Scan type : Progressive

Bits/(Pixel*Frame) : 0.301

Stream size : 3.30 GiB (88%)

Color primaries : BT.709-5, BT.1361, IEC 61966-2-4, SMPTE RP177

Transfer characteristics : BT.709-5, BT.1361

Matrix coefficients : BT.709-5, BT.1361, IEC 61966-2-4 709, SMPTE RP177

 

Audio

ID : 2

Format : AC-3

Format/Info : Audio Coding 3

Mode extension : CM (complete main)

Codec ID : A_AC3

Duration : 2h 0mn

Bit rate mode : Constant

Bit rate : 448 Kbps

Channel(s) : 6 channels

Channel positions : Front: L C R, Side: L R, LFE

Sampling rate : 48.0 KHz

Bit depth : 16 bits

Video delay : 21ms

Stream size : 385 MiB (10%)

 

Menu

00:00:00.000 : en:A Head Full Of Dreams (Live in São Paulo)

00:05:38.480 : en:Yellow (Live In São Paulo)

00:10:33.480 : en:Every Teardrop Is A Waterfall (Live In São Paulo)

00:14:36.999 : en:The Scientist (Live In São Paulo)

00:20:53.279 : en:Birds (Live In São Paulo)

00:25:24.399 : en:paradise (Live In São Paulo)

00:32:13.759 : en:Always In My Head (Live In São Paulo)

00:35:43.478 : en:Magic (Live In São Paulo)

00:42:45.557 : en:Everglow (Live In São Paulo)

00:47:11.636 : en:Clocks (Live In São Paulo)

00:51:43.395 : en:Midnight (Live In São Paulo)

00:53:33.514 : en:Charlie Brown (Live In São Paulo)

00:57:55.593 : en:Hymn For The Weekend (Live In São Paulo)

01:02:38.473 : en:Fix You (Live In São Paulo)

01:08:35.432 : en:Viva La Vida (Live In São Paulo)

01:12:44.992 : en:Adventure Of A Lifetime (Live In São Paulo)

01:17:38.351 : en:Colour Spectrum (Live In São Paulo)

01:19:35.311 : en:Us Against The World (Live In São Paulo)

01:26:41.390 : en:In My Place (Live In São Paulo)

01:31:25.950 : en:paulistanos (Live In São Paulo)

01:36:41.750 : en:Something Just Like This (Live In São Paulo)

01:40:53.750 : en:A Sky Full Of Stars (Live In São Paulo)

01:45:48.789 : en:Up&Up (Live In São Paulo)

01:56:10.469 : en:End Credits (Live In São Paulo)

Share this post


Link to post
Share on other sites
Thecnical Dates

 

Format : Matroska

File size : 3.75 GiB

Duration : 2h 0mn

Overall bit rate : 4 470 Kbps

Encoded date : UTC 2018-12-08 16:47:31

Writing application : mkvmerge v25.0.0 ('Prog Noir') 32-bit

Writing library : libebml v1.3.6 + libmatroska v1.4.9

 

Video

ID : 1

Format : AVC

Format/Info : Advanced Video Codec

Format profile : [email protected]

Format settings, CABAC : No

Format settings, ReFrames : 2 frames

Muxing mode : Container [email protected]

Codec ID : V_MPEG4/ISO/AVC

Duration : 2h 0mn

Bit rate : 3 933 Kbps

Width : 960 pixels

Height : 544 pixels

Display aspect ratio : 2.35:1

Frame rate : 25.000 fps

Color space : YUV

Chroma subsampling : 4:2:0

Bit depth : 8 bits

Scan type : Progressive

Bits/(Pixel*Frame) : 0.301

Stream size : 3.30 GiB (88%)

Color primaries : BT.709-5, BT.1361, IEC 61966-2-4, SMPTE RP177

Transfer characteristics : BT.709-5, BT.1361

Matrix coefficients : BT.709-5, BT.1361, IEC 61966-2-4 709, SMPTE RP177

 

Audio

ID : 2

Format : AC-3

Format/Info : Audio Coding 3

Mode extension : CM (complete main)

Codec ID : A_AC3

Duration : 2h 0mn

Bit rate mode : Constant

Bit rate : 448 Kbps

Channel(s) : 6 channels

Channel positions : Front: L C R, Side: L R, LFE

Sampling rate : 48.0 KHz

Bit depth : 16 bits

Video delay : 21ms

Stream size : 385 MiB (10%)

 

Menu

00:00:00.000 : en:A Head Full Of Dreams (Live in São Paulo)

00:05:38.480 : en:Yellow (Live In São Paulo)

00:10:33.480 : en:Every Teardrop Is A Waterfall (Live In São Paulo)

00:14:36.999 : en:The Scientist (Live In São Paulo)

00:20:53.279 : en:Birds (Live In São Paulo)

00:25:24.399 : en:paradise (Live In São Paulo)

00:32:13.759 : en:Always In My Head (Live In São Paulo)

00:35:43.478 : en:Magic (Live In São Paulo)

00:42:45.557 : en:Everglow (Live In São Paulo)

00:47:11.636 : en:Clocks (Live In São Paulo)

00:51:43.395 : en:Midnight (Live In São Paulo)

00:53:33.514 : en:Charlie Brown (Live In São Paulo)

00:57:55.593 : en:Hymn For The Weekend (Live In São Paulo)

01:02:38.473 : en:Fix You (Live In São Paulo)

01:08:35.432 : en:Viva La Vida (Live In São Paulo)

01:12:44.992 : en:Adventure Of A Lifetime (Live In São Paulo)

01:17:38.351 : en:Colour Spectrum (Live In São Paulo)

01:19:35.311 : en:Us Against The World (Live In São Paulo)

01:26:41.390 : en:In My Place (Live In São Paulo)

01:31:25.950 : en:paulistanos (Live In São Paulo)

01:36:41.750 : en:Something Just Like This (Live In São Paulo)

01:40:53.750 : en:A Sky Full Of Stars (Live In São Paulo)

01:45:48.789 : en:Up&Up (Live In São Paulo)

01:56:10.469 : en:End Credits (Live In São Paulo)

thaaaanks!!!! i don´t know how post this in multimedia, can you help me please?

Share this post


Link to post
Share on other sites
Thecnical Dates

 

Format : Matroska

File size : 3.75 GiB

Duration : 2h 0mn

Overall bit rate : 4 470 Kbps

Encoded date : UTC 2018-12-08 16:47:31

Writing application : mkvmerge v25.0.0 ('Prog Noir') 32-bit

Writing library : libebml v1.3.6 + libmatroska v1.4.9

 

Video

ID : 1

Format : AVC

Format/Info : Advanced Video Codec

Format profile : [email protected]

Format settings, CABAC : No

Format settings, ReFrames : 2 frames

Muxing mode : Container [email protected]

Codec ID : V_MPEG4/ISO/AVC

Duration : 2h 0mn

Bit rate : 3 933 Kbps

Width : 960 pixels

Height : 544 pixels

Display aspect ratio : 2.35:1

Frame rate : 25.000 fps

Color space : YUV

Chroma subsampling : 4:2:0

Bit depth : 8 bits

Scan type : Progressive

Bits/(Pixel*Frame) : 0.301

Stream size : 3.30 GiB (88%)

Color primaries : BT.709-5, BT.1361, IEC 61966-2-4, SMPTE RP177

Transfer characteristics : BT.709-5, BT.1361

Matrix coefficients : BT.709-5, BT.1361, IEC 61966-2-4 709, SMPTE RP177

 

Audio

ID : 2

Format : AC-3

Format/Info : Audio Coding 3

Mode extension : CM (complete main)

Codec ID : A_AC3

Duration : 2h 0mn

Bit rate mode : Constant

Bit rate : 448 Kbps

Channel(s) : 6 channels

Channel positions : Front: L C R, Side: L R, LFE

Sampling rate : 48.0 KHz

Bit depth : 16 bits

Video delay : 21ms

Stream size : 385 MiB (10%)

 

Menu

00:00:00.000 : en:A Head Full Of Dreams (Live in São Paulo)

00:05:38.480 : en:Yellow (Live In São Paulo)

00:10:33.480 : en:Every Teardrop Is A Waterfall (Live In São Paulo)

00:14:36.999 : en:The Scientist (Live In São Paulo)

00:20:53.279 : en:Birds (Live In São Paulo)

00:25:24.399 : en:paradise (Live In São Paulo)

00:32:13.759 : en:Always In My Head (Live In São Paulo)

00:35:43.478 : en:Magic (Live In São Paulo)

00:42:45.557 : en:Everglow (Live In São Paulo)

00:47:11.636 : en:Clocks (Live In São Paulo)

00:51:43.395 : en:Midnight (Live In São Paulo)

00:53:33.514 : en:Charlie Brown (Live In São Paulo)

00:57:55.593 : en:Hymn For The Weekend (Live In São Paulo)

01:02:38.473 : en:Fix You (Live In São Paulo)

01:08:35.432 : en:Viva La Vida (Live In São Paulo)

01:12:44.992 : en:Adventure Of A Lifetime (Live In São Paulo)

01:17:38.351 : en:Colour Spectrum (Live In São Paulo)

01:19:35.311 : en:Us Against The World (Live In São Paulo)

01:26:41.390 : en:In My Place (Live In São Paulo)

01:31:25.950 : en:paulistanos (Live In São Paulo)

01:36:41.750 : en:Something Just Like This (Live In São Paulo)

01:40:53.750 : en:A Sky Full Of Stars (Live In São Paulo)

01:45:48.789 : en:Up&Up (Live In São Paulo)

01:56:10.469 : en:End Credits (Live In São Paulo)

Does this one work?

Share this post


Link to post
Share on other sites

Who want the 1080p version dm me

  • Like 9

Share this post


Link to post
Share on other sites

With GD, if you get a 'quota exceeded' error:

1. Add the file to your GD.

2. Make a copy of it.

3. Download said copy.

Works for me most of the time.

  • Like 1

Share this post


Link to post
Share on other sites
Also noted São Paulo movie seems out of sync with sound in several places. Would explain it

 

The biggest gripe is the re-placements of shots throughout - especially re. the crowd close-ups, which someone else touched on.. It obviously works from an energy and pacing point of view, but 90% of the close-up crowd reactions have been re-positioned/aren't live reactions to the live sound, which kind of ruins the context and emotion, to some degree.. e.g. Clocks kicks in and it cuts to a wide shot from the spider cam of the crowd bouncing wild up and down, then a reverse of the stage with the lasers and the crowd is static.. Obviously the first shot was from another song and just colour graded red to match the Clocks visuals..

 

The only other issue is the constant cutting to shots from the Milan and Paris shows.. I like the quick nods to different shows on the tour, but a good 15% of each song contains footage from other concerts, which takes away form the whole 'Live in Sao Paulo'

 

All that aside, it's a phenomenal performance/film, which really does capture the whole AHFOD experience

  • Like 2

Share this post


Link to post
Share on other sites

I have the 1080p version of the concert with both stereo and 5.1 (thanks to Enrique) audio tracks. I'll upload it to google drive tonight. Anyone interested? PM me!

wwww.PNG.417d9208c021cfcde210a146cb4d2633.PNG

  • Like 16

Share this post


Link to post
Share on other sites
I have the 1080p version of the concert with both stereo and 5.1 (thanks to Enrique) audio tracks. I'll upload it to google drive tonight. Anyone interested? PM me!

I AM!!!

Share this post


Link to post
Share on other sites

I have a feeling they will release 4K/blu-ray combo soon but it's so annoying it wasn't released at the same time as everything else. It really doesn't make any sense for them not to release it at all.

  • Like 2

Share this post


Link to post
Share on other sites

Amazon now shows the Live-DVD-Set for 18,99€/23,23$.... Last week I bought it for 27,99€...:eek:

 

[MEDIA=amazon]id=B07J35G5N2;tld=de[/MEDIA]

Mobile Link: https://www.amazon.de/gp/product/B07J35G5N2/ref=oh_aui_detailpage_o00_s00?ie=UTF8&psc=1

 

 

[MEDIA=amazon]B07J35G5N2[/MEDIA]

Mobile Link: https://www.amazon.com/Butterfly-Package-Buenos-Aires-Dreams/dp/B07J35G5N2/ref=sr_1_3?ie=UTF8&qid=1544682110&sr=8-3&keywords=coldplay

 

 

This is weird....

  • Like 1

Share this post


Link to post
Share on other sites

I watched some songs of the 720p video (thank you for sharing) and I have the sensation that all the audio track is not well sync with the video, not only the vocals... the lag is very very tiny.

I discovered the brazilian song on the C Stage, beautiful !

Share this post


Link to post
Share on other sites
I have the 1080p version of the concert with both stereo and 5.1 (thanks to Enrique) audio tracks. I'll upload it to google drive tonight. Anyone interested? PM me!
Me please!

 

Sent from my SM-G965U using Tapatalk

Share this post


Link to post
Share on other sites
I have the 1080p version of the concert with both stereo and 5.1 (thanks to Enrique) audio tracks. I'll upload it to google drive tonight. Anyone interested? PM me!

Hey, can you send me this version?

Thank you in advance.

Share this post


Link to post
Share on other sites
I have the 1080p version of the concert with both stereo and 5.1 (thanks to Enrique) audio tracks. I'll upload it to google drive tonight. Anyone interested? PM me!

 

new technicals

 

Format : Matroska

File size : 4.51 GiB

Duration : 2h 0mn

Overall bit rate : 5 374 Kbps

Encoded date : UTC 2018-12-12 13:11:36

Writing application : mkvmerge v28.2.0 ('The Awakening') 64-bit

Writing library : libebml v1.3.6 + libmatroska v1.4.9

 

Video

ID : 2

Format : AVC

Format/Info : Advanced Video Codec

Format profile : [email protected]

Format settings, CABAC : Yes

Format settings, ReFrames : 5 frames

Muxing mode : Container [email protected]

Codec ID : V_MPEG4/ISO/AVC

Duration : 2h 0mn

Width : 1 920 pixels

Height : 816 pixels

Display aspect ratio : 2.35:1

Frame rate : 25.000 fps

Color space : YUV

Chroma subsampling : 4:2:0

Bit depth : 8 bits

Scan type : Progressive

Color primaries : BT.709-5, BT.1361, IEC 61966-2-4, SMPTE RP177

Transfer characteristics : BT.709-5, BT.1361

Matrix coefficients : BT.709-5, BT.1361, IEC 61966-2-4 709, SMPTE RP177

 

Audio #1

ID : 1

Format : AAC

Format/Info : Advanced Audio Codec

Format version : Version 4

Format profile : LC

Format settings, SBR : No

Codec ID : A_AAC

Duration : 2h 0mn

Channel(s) : 2 channels

Channel positions : Front: L R

Sampling rate : 48.0 KHz

Video delay : -40ms

 

Audio #2

ID : 3

Format : AC-3

Format/Info : Audio Coding 3

Mode extension : CM (complete main)

Codec ID : A_AC3

Duration : 2h 0mn

Bit rate mode : Constant

Bit rate : 448 Kbps

Channel(s) : 6 channels

Channel positions : Front: L C R, Side: L R, LFE

Sampling rate : 48.0 KHz

Bit depth : 16 bits

Video delay : -29ms

Stream size : 385 MiB (8%)

 

Menu

00:00:00.000 : en:A Head Full Of Dreams (Live in São Paulo)

00:05:38.480 : en:Yellow (Live In São Paulo)

00:10:33.480 : en:Every Teardrop Is A Waterfall (Live In São Paulo)

00:14:37.000 : en:The Scientist (Live In São Paulo)

00:20:53.280 : en:Birds (Live In São Paulo)

00:25:24.400 : en:Paradise (Live In São Paulo)

00:32:13.760 : en:Always In My Head (Live In São Paulo)

00:35:43.480 : en:Magic (Live In São Paulo)

00:42:45.560 : en:Everglow (Live In São Paulo)

00:47:11.640 : en:Clocks (Live In São Paulo)

00:51:43.400 : en:Midnight (Live In São Paulo)

00:53:33.520 : en:Charlie Brown (Live In São Paulo)

00:57:55.599 : en:Hymn For The Weekend (Live In São Paulo)

01:02:38.479 : en:Fix You (Live In São Paulo)

01:08:35.439 : en:Viva La Vida (Live In São Paulo)

01:12:44.999 : en:Adventure Of A Lifetime (Live In São Paulo)

01:17:38.359 : en:Colour Spectrum (Live In São Paulo)

01:19:35.319 : en:Us Against The World (Live In São Paulo)

01:26:41.399 : en:In My Place (Live In São Paulo)

01:31:25.959 : en:Paulistanos (Live In São Paulo)

01:36:41.759 : en:Something Just Like This (Live In São Paulo)

01:40:53.759 : en:A Sky Full Of Stars (Live In São Paulo)

01:45:48.799 : en:Up&Up (Live In São Paulo)

01:56:10.479 : en:End Credits (Live In São Paulo)

Share this post


Link to post
Share on other sites

The video delay is not the same between the stereo audio track and the 5.1 audio track.

Could you think that’s why we have the sensation of a gap when we are watching ?

Audio 1 : -40ms

Audio 2 : -29ms

Share this post


Link to post
Share on other sites
The video delay is not the same between the stereo audio track and the 5.1 audio track.

Could you think that’s why we have the sensation of a gap when we are watching ?

Audio 1 : -40ms

Audio 2 : -29ms

 

I've noticed that but they're from different sources the stereo track is the original from itunes and the 5.1 probably from the DVD. When I pay attention to Chris singing they feel in sync. I think the sensation of gap is due to the edition itself...misplaced crowd cuts those kind of things. But if someone could check the audio sync...it would be great!

Share this post


Link to post
Share on other sites

Create an account or sign in to comment

You need to be a member in order to leave a comment

Create an account

Sign up for a new account in our community. It's easy!

Register a new account

Sign in

Already have an account? Sign in here.

Sign In Now



×
×
  • Create New...