Jump to content
Search In
  • More options...
Find results that contain...
Find results in...
✨ STAY UP TO DATE WITH THE WORLD TOUR ✨

[2021-05-22] Live at Worthy Farm, Worthy Farm, Pilton, England [1080i | 19.2 Mb/s]


2 Screenshots

About This File

Coldplay
Live at Worthy Farm
Worthy Farm
Pilton, England
May 22, 2021

Lineage: 1W (Intelsat 10-02) > Zgemma H2S > FFMPEG cut > file.ts

Video: H264 Video 1920x1080i 16:9 19.2 Mb/s 25.00 fps 8-bit 4:2:0
Audio: AC3 640 Kbps 48.0 KHz 5.1

Setlist:
Intro (Music of The Spheres)
01. Higher Power
02. The Scientist
03. Viva La Vida
04. Human Heart (with KING)
05. Clocks
06. Fix You
07. A Sky Full of Stars

Notes: Filmed in front of the Pyramid Stage a few days before the stream; a prerecorded stream available in 4 time zones via Driift.

Media Info:

Spoiler

General
ID                                       : 1 (0x1)
Format                                   : MPEG-TS
File size                                : 4.89 GiB
Duration                                 : 33 min 33 s
Overall bit rate mode                    : Variable
Overall bit rate                         : 20.9 Mb/s

Video
ID                                       : 256 (0x100)
Menu ID                                  : 1 (0x1)
Format                                   : AVC
Format/Info                              : Advanced Video Codec
Format profile                           : [email protected]
Format settings                          : CABAC / 4 Ref Frames
Format settings, CABAC                   : Yes
Format settings, Reference frames        : 4 frames
Codec ID                                 : 27
Duration                                 : 33 min 33 s
Bit rate                                 : 19.2 Mb/s
Width                                    : 1 920 pixels
Height                                   : 1 080 pixels
Display aspect ratio                     : 16:9
Frame rate                               : 25.000 FPS
Color space                              : YUV
Chroma subsampling                       : 4:2:0
Bit depth                                : 8 bits
Scan type                                : Interlaced
Scan type, store method                  : Separated fields
Scan order                               : Top Field First
Bits/(Pixel*Frame)                       : 0.370
Stream size                              : 4.50 GiB (92%)
Color range                              : Limited
Color primaries                          : BT.709
Transfer characteristics                 : BT.709
Matrix coefficients                      : BT.709

Audio
ID                                       : 257 (0x101)
Menu ID                                  : 1 (0x1)
Format                                   : AC-3
Format/Info                              : Audio Coding 3
Commercial name                          : Dolby Digital
Codec ID                                 : 129
Duration                                 : 33 min 34 s
Bit rate mode                            : Constant
Bit rate                                 : 640 kb/s
Channel(s)                               : 6 channels
Channel layout                           : L R C LFE Ls Rs
Sampling rate                            : 48.0 kHz
Frame rate                               : 31.250 FPS (1536 SPF)
Compression mode                         : Lossy
Delay relative to video                  : -229 ms
Stream size                              : 154 MiB (3%)
Language                                 : English
Service kind                             : Complete Main

Menu
ID                                       : 4096 (0x1000)
Menu ID                                  : 1 (0x1)
Duration                                 : 33 min 33 s
List                                     : 256 (0x100) (AVC) / 257 (0x101) (AC-3, English)
Language                                 :  / English
Service name                             : Service01
Service provider                         : FFmpeg
Service type                             : digital television

 

  • Love 5
 Share


×
×
  • Create New...