Jump to content
Search In
  • More options...
Find results that contain...
Find results in...
✨ STAY UP TO DATE WITH THE WORLD TOUR ✨

[2021-10-22] Climate Pledge Arena, Seattle, WA, USA [1080p | 7069kb/s]


2 Screenshots

About This File

Coldplay
Climate Pledge Arena
Seattle, WA, USA
Oct 22, 2021

Lineage: Amazon Prime Video > file.mp4

Video: H264 Video 1920x1080p 16:9 (2.39:1 picture) 7069 kb/s 25.00 fps 8-bit 4:2:0
Audio: EAC3 224 Kbps 48.0 KHz stereo

Setlist:
Infinity Sign (Livestream intro, not played live)
01. Music of the Spheres
02. Higher Power
03. Clocks
04. Fix You
05. Viva La Vida
06. Adventure of a Lifetime
07. The Scientist
08. Paradise
B-Stage:
09. Human Heart (with We Are KING)
A-Stage:
10. People of the Pride
11. Everything's Not Lost
B-Stage:
12. Magic
13. Yellow
14. Nothingman (Pearl Jam cover)
A-Stage:
15. My Universe
16. A Sky Full of Stars
17. Coloratura

Notes: Broadcast live on Amazon Music, Amazon Prime and Twitch. The Twitch version had amazon music logo's in the unused frame. This version is much higher quality.

Media Info:

Spoiler

 

General
Format                                   : MPEG-4
Format profile                           : Base Media / Version 2
Codec ID                                 : mp42 (mp42/iso6)
File size                                : 4.94 GiB
Duration                                 : 1 h 36 min
Overall bit rate mode                    : Variable
Overall bit rate                         : 7 297 kb/s
Movie name                               : Coldplay Live from Climate Pledge Arena
Encoded date                             : UTC 2021-11-12 18:07:37
Tagged date                              : UTC 2021-11-12 18:07:37
Comment                                  : The first live performance featuring songs from Coldplay's brand-new album, Music Of The Spheres, from the Grand Opening of Climate Pledge Arena in Seattle. This is the band's first arena show in nearly five years, just one week after their new album was released. Directed by Paul Dugdale.

Video
ID                                       : 1
Format                                   : AVC
Format/Info                              : Advanced Video Codec
Format profile                           : [email protected]
Format settings                          : CABAC / 4 Ref Frames
Format settings, CABAC                   : Yes
Format settings, Reference frames        : 4 frames
Codec ID                                 : avc1
Codec ID/Info                            : Advanced Video Coding
Duration                                 : 1 h 36 min
Bit rate                                 : 7 069 kb/s
Maximum bit rate                         : 23.9 Mb/s
Width                                    : 1 920 pixels
Height                                   : 1 080 pixels
Display aspect ratio                     : 16:9
Frame rate mode                          : Constant
Frame rate                               : 25.000 FPS
Color space                              : YUV
Chroma subsampling                       : 4:2:0
Bit depth                                : 8 bits
Scan type                                : Progressive
Bits/(Pixel*Frame)                       : 0.136
Stream size                              : 4.78 GiB (97%)
Encoded date                             : UTC 2021-11-12 18:07:37
Tagged date                              : UTC 2021-11-12 18:07:37
Color range                              : Limited
Color primaries                          : BT.709
Transfer characteristics                 : BT.709
Matrix coefficients                      : BT.709
Codec configuration box                  : avcC

Audio
ID                                       : 2
Format                                   : E-AC-3
Format/Info                              : Enhanced AC-3
Commercial name                          : Dolby Digital Plus
Codec ID                                 : ec-3
Duration                                 : 1 h 36 min
Bit rate mode                            : Constant
Bit rate                                 : 224 kb/s
Channel(s)                               : 2 channels
Channel layout                           : L R
Sampling rate                            : 48.0 kHz
Frame rate                               : 31.250 FPS (1536 SPF)
Compression mode                         : Lossy
Stream size                              : 155 MiB (3%)
Language                                 : English
Service kind                             : Complete Main
Encoded date                             : UTC 2021-11-12 18:07:37
Tagged date                              : UTC 2021-11-12 18:07:37

Text #1
ID                                       : 3
Format                                   : Timed Text
Muxing mode                              : sbtl
Codec ID                                 : tx3g
Duration                                 : 1 h 36 min
Bit rate mode                            : Variable
Bit rate                                 : 49 b/s
Stream size                              : 34.3 KiB (0%)
Title                                    : Français (Canada) [CC] / Français (Canada) [CC]
Language                                 : French
Forced                                   : No
Encoded date                             : UTC 2021-11-12 18:07:37
Tagged date                              : UTC 2021-11-12 18:07:37

Text #2
ID                                       : 4
Format                                   : Timed Text
Muxing mode                              : sbtl
Codec ID                                 : tx3g
Duration                                 : 1 h 36 min
Bit rate mode                            : Variable
Bit rate                                 : 49 b/s
Stream size                              : 34.3 KiB (0%)
Title                                    : Português (Brasil) [SDH] / Português (Brasil) [SDH]
Language                                 : Portuguese
Forced                                   : No
Encoded date                             : UTC 2021-11-12 18:07:37
Tagged date                              : UTC 2021-11-12 18:07:37

Text #3
ID                                       : 5
Format                                   : Timed Text
Muxing mode                              : sbtl
Codec ID                                 : tx3g
Duration                                 : 1 h 36 min
Bit rate mode                            : Variable
Bit rate                                 : 49 b/s
Stream size                              : 34.3 KiB (0%)
Title                                    : Português (Portugal) [CC] / Português (Portugal) [CC]
Language                                 : Portuguese
Forced                                   : No
Encoded date                             : UTC 2021-11-12 18:07:37
Tagged date                              : UTC 2021-11-12 18:07:37

Text #4
ID                                       : 6
Format                                   : Timed Text
Muxing mode                              : sbtl
Codec ID                                 : tx3g
Duration                                 : 1 h 36 min
Bit rate mode                            : Variable
Bit rate                                 : 49 b/s
Stream size                              : 34.3 KiB (0%)
Title                                    : Español (España) [CC] / Español (España) [CC]
Language                                 : Spanish
Forced                                   : No
Encoded date                             : UTC 2021-11-12 18:07:37
Tagged date                              : UTC 2021-11-12 18:07:37

Text #5
ID                                       : 7
Format                                   : Timed Text
Muxing mode                              : sbtl
Codec ID                                 : tx3g
Duration                                 : 1 h 34 min
Bit rate mode                            : Variable
Bit rate                                 : 54 b/s
Stream size                              : 37.3 KiB (0%)
Title                                    : Deutsch [UT] / Deutsch [UT]
Language                                 : German
Forced                                   : No
Encoded date                             : UTC 2021-11-12 18:07:37
Tagged date                              : UTC 2021-11-12 18:07:37

Text #6
ID                                       : 8
Format                                   : Timed Text
Muxing mode                              : sbtl
Codec ID                                 : tx3g
Duration                                 : 1 h 36 min
Bit rate mode                            : Variable
Bit rate                                 : 49 b/s
Stream size                              : 34.3 KiB (0%)
Title                                    : English [CC] / English [CC]
Language                                 : English
Forced                                   : No
Encoded date                             : UTC 2021-11-12 18:07:37
Tagged date                              : UTC 2021-11-12 18:07:37

Text #7
ID                                       : 9
Format                                   : Timed Text
Muxing mode                              : sbtl
Codec ID                                 : tx3g
Duration                                 : 1 h 36 min
Bit rate mode                            : Variable
Bit rate                                 : 49 b/s
Stream size                              : 34.3 KiB (0%)
Title                                    : Español (México) [CC] / Español (México) [CC]
Language                                 : Spanish
Forced                                   : No
Encoded date                             : UTC 2021-11-12 18:07:37
Tagged date                              : UTC 2021-11-12 18:07:37

Text #8
ID                                       : 10
Format                                   : Timed Text
Muxing mode                              : sbtl
Codec ID                                 : tx3g
Duration                                 : 1 h 36 min
Bit rate mode                            : Variable
Bit rate                                 : 49 b/s
Stream size                              : 34.3 KiB (0%)
Title                                    : Français (France) [CC] / Français (France) [CC]
Language                                 : French
Forced                                   : No
Encoded date                             : UTC 2021-11-12 18:07:37
Tagged date                              : UTC 2021-11-12 18:07:37

 

 

 Share


×
×
  • Create New...