Jump to content
Search In
  • More options...
Find results that contain...
Find results in...
✨ STAY UP TO DATE WITH THE WORLD TOUR ✨

[2019-11-22] (Sunrise) Amman Citadel, Amman, Jordan [1080p | 1140kb/s]


2 Screenshots

About This File

Coldplay
Amman Citadel
Amman, Jordan
November 22, 2019

 

Lineage: YouTube Video > 4k Video Downloader > video.mp4

 

Video: H264 Video 1920x1080p 16:9 frame/2.35:1 picture 1006kb/s 25.00 fps 8-bit 4:2:0
Audio: AAC 128 Kbps 44.1 KHz stereo

 

Setlist:
01. Sunrise
02. Church 
03. Trouble in Town 
04. BrokEn 
05. Daddy 
06. WOTW/POTP 
07. Arabesque (with Stromae and Femi Kuti) 
08. When I Need a Friend 

 

Note: Captured and uploaded to DIME by indykid
The sunrise performance for the release of Coldplay's new album, 'Everyday Life' includes the first half of the album - entitled "Sunrise"

 

Media Info:

 

 

General


Complete name                            : Coldplay - 2019-11-22 (Sunrise) Amman Citadel, Amman, Jordan.mp4
Format                                   : MPEG-4
Format profile                           : Base Media
Codec ID                                 : isom (isom/iso2/avc1/mp41)
File size                                : 229 MiB
Duration                                 : 28 min 6 s
Overall bit rate                         : 1 140 kb/s
Writing application                      : Lavf58.20.100

Video
ID                                       : 1
Format                                   : AVC
Format/Info                              : Advanced Video Codec
Format profile                           : [email protected]
Format settings                          : CABAC / 3 Ref Frames
Format settings, CABAC                   : Yes
Format settings, Reference frames        : 3 frames
Codec ID                                 : avc1
Codec ID/Info                            : Advanced Video Coding
Duration                                 : 28 min 6 s
Duration_FirstFrame                      : -40 ms
Bit rate                                 : 1 006 kb/s
Width                                    : 1 920 pixels
Height                                   : 1 080 pixels
Display aspect ratio                     : 16:9
Frame rate mode                          : Variable
Frame rate                               : 25.000 FPS
Minimum frame rate                       : 25.000 FPS
Maximum frame rate                       : 25.014 FPS
Color space                              : YUV
Chroma subsampling                       : 4:2:0
Bit depth                                : 8 bits
Scan type                                : Progressive
Bits/(Pixel*Frame)                       : 0.019
Stream size                              : 202 MiB (88%)
Writing library                          : x264 core 155 r2901 7d0ff22
Color range                              : Limited
Color primaries                          : BT.709
Transfer characteristics                 : BT.709
Matrix coefficients                      : BT.709
Codec configuration box                  : avcC

Audio
ID                                       : 2
Format                                   : AAC LC
Format/Info                              : Advanced Audio Codec Low Complexity
Codec ID                                 : mp4a-40-2
Duration                                 : 28 min 6 s
Bit rate mode                            : Constant
Bit rate                                 : 128 kb/s
Channel(s)                               : 2 channels
Channel layout                           : L R
Sampling rate                            : 44.1 kHz
Frame rate                               : 43.066 FPS (1024 SPF)
Compression mode                         : Lossy
Stream size                              : 25.7 MiB (11%)
Default                                  : Yes
Alternate group                          : 1

 Share


×
×
  • Create New...