Jump to content
Search In
  • More options...
Find results that contain...
Find results in...
✨ STAY UP TO DATE WITH THE WORLD TOUR ✨

[2019-11-22] (Sunset) Amman Citadel, Amman, Jordan [1080p | 1430kb/s]


2 Screenshots

About This File

Coldplay
Amman Citadel
Amman, Jordan
November 22, 2019

Lineage: YouTube Video > 4k Video Downloader > video.mp4

Video: H264 Video 1920x1080p 16:9 frame/2.35:1 picture 1296kb/s 25.00 fps 8-bit 4:2:0
Audio: AAC 128 Kbps 44.1 KHz stereo

Setlist:
01. Guns
02. Orphans
03. Èkó
04. Cry Cry Cry
05. Old Friends
بنی آدم 06‪.‬ 
07. Champion of the World
08. Everyday Life

Note: Captured and uploaded to DIME by indykid
The sunset performance for the release of Coldplay's new album, 'Everyday Life' includes the second half of the album - entitled "Sunset"

Media Info:

 

 

General


Complete name                            : Coldplay - 2019-11-22 (Sunset) Amman Citadel, Amman, Jordan.mp4
Format                                   : MPEG-4
Format profile                           : Base Media
Codec ID                                 : isom (isom/iso2/avc1/mp41)
File size                                : 311 MiB
Duration                                 : 30 min 21 s
Overall bit rate                         : 1 430 kb/s
Writing application                      : Lavf58.20.100

Video
ID                                       : 1
Format                                   : AVC
Format/Info                              : Advanced Video Codec
Format profile                           : [email protected]
Format settings                          : CABAC / 3 Ref Frames
Format settings, CABAC                   : Yes
Format settings, Reference frames        : 3 frames
Codec ID                                 : avc1
Codec ID/Info                            : Advanced Video Coding
Duration                                 : 30 min 21 s
Duration_FirstFrame                      : -40 ms
Bit rate                                 : 1 296 kb/s
Width                                    : 1 920 pixels
Height                                   : 1 080 pixels
Display aspect ratio                     : 16:9
Frame rate mode                          : Variable
Frame rate                               : 25.000 FPS
Minimum frame rate                       : 25.000 FPS
Maximum frame rate                       : 25.014 FPS
Color space                              : YUV
Chroma subsampling                       : 4:2:0
Bit depth                                : 8 bits
Scan type                                : Progressive
Bits/(Pixel*Frame)                       : 0.025
Stream size                              : 281 MiB (91%)
Writing library                          : x264 core 155 r2901 7d0ff22
Color range                              : Limited
Color primaries                          : BT.709
Transfer characteristics                 : BT.709
Matrix coefficients                      : BT.709
Codec configuration box                  : avcC

Audio
ID                                       : 2
Format                                   : AAC LC
Format/Info                              : Advanced Audio Codec Low Complexity
Codec ID                                 : mp4a-40-2
Duration                                 : 30 min 21 s
Bit rate mode                            : Constant
Bit rate                                 : 128 kb/s
Channel(s)                               : 2 channels
Channel layout                           : L R
Sampling rate                            : 44.1 kHz
Frame rate                               : 43.066 FPS (1024 SPF)
Compression mode                         : Lossy
Stream size                              : 27.8 MiB (9%)
Default                                  : Yes
Alternate group                          : 1

  • Thanks 1
 Share


×
×
  • Create New...