Jump to content
Search In
  • More options...
Find results that contain...
Find results in...
✨ STAY UP TO DATE WITH THE WORLD TOUR ✨

[2002-06-28] Glastonbury Festival, Worthy Farm, Pilton, England [576i | 27.9Mb/s]


2 Screenshots

About This File

Coldplay
Glastonbury Festival
Worthy Farm
Pilton, England
June 28, 2002

Lineage: Betacam SP Tape > Sony J-3 > Blackmagic Ultrastudio Recorder 3G > ProRes 422 > Premiere Pro > Adobe Media Encoder > ProRes LT > finished.mov

Setlist:
01. Spies
02. Daylight
03. Trouble
04. God Put a Smile Upon Your Face
05. Yellow
06. The Scientist
07. Clocks
08. In My Place

Notes: Captured by Coldplaying, Incomplete set

Media Info:

 

General


Format                                   : MPEG-4
Format profile                           : QuickTime
Codec ID                                 : qt   2005.03 (qt  )
File size                                : 8.05 GiB
Duration                                 : 41 min 16 s
Overall bit rate mode                    : Variable
Overall bit rate                         : 27.9 Mb/s
Encoded date                             : UTC 2020-11-03 20:35:47
Tagged date                              : UTC 2020-10-26 20:46:22
Writing library                          : Apple QuickTime
TIM                                      : 00:00:00:00
TSC                                      : 25
TSZ                                      : 1

Video
ID                                       : 1
Format                                   : ProRes
Format version                           : Version 0
Format profile                           : 422 LT
Codec ID                                 : apcs
Duration                                 : 41 min 16 s
Bit rate mode                            : Variable
Bit rate                                 : 26.4 Mb/s
Width                                    : 720 pixels
Clean aperture width                     : 703 pixels
Height                                   : 576 pixels
Clean aperture height                    : 576 pixels
Display aspect ratio                     : 1.85:1
Clean aperture display aspect ratio      : 16:9
Frame rate mode                          : Constant
Frame rate                               : 25.000 FPS
Standard                                 : PAL
Color space                              : YUV
Chroma subsampling                       : 4:2:2
Scan type                                : Interlaced
Scan type, store method                  : Interleaved fields
Scan order                               : Top Field First
Bits/(Pixel*Frame)                       : 2.544
Stream size                              : 7.60 GiB (94%)
Writing library                          : Apple
Language                                 : English
Encoded date                             : UTC 2020-11-03 20:35:47
Tagged date                              : UTC 2020-11-03 20:35:47
Color primaries                          : BT.601 PAL
Transfer characteristics                 : BT.709
Matrix coefficients                      : BT.601

Audio
ID                                       : 2
Format                                   : PCM
Format settings                          : Little / Signed
Codec ID                                 : sowt
Duration                                 : 41 min 16 s
Bit rate mode                            : Constant
Bit rate                                 : 1 536 kb/s
Channel(s)                               : 2 channels
Channel layout                           : L R
Sampling rate                            : 48.0 kHz
Bit depth                                : 16 bits
Stream size                              : 453 MiB (6%)
Language                                 : English
Encoded date                             : UTC 2020-11-03 20:35:47
Tagged date                              : UTC 2020-11-03 20:35:47

Other
ID                                       : 3
Type                                     : Time code
Format                                   : QuickTime TC
Duration                                 : 41 min 16 s
Frame rate                               : 25.000 FPS
Time code of first frame                 : 00:00:00:00
Time code, striped                       : Yes
Language                                 : English
Encoded date                             : UTC 2020-11-03 20:35:47
Tagged date                              : UTC 2020-11-03 20:35:47

  • Love 4
  • Care 1
 Share

×
×
  • Create New...