Jump to content
Search In
  • More options...
Find results that contain...
Find results in...
✨ STAY UP TO DATE WITH THE WORLD TOUR ✨

[2008-06-18] BBC Television Centre, London, England [1080i | 11.8Mb/s]


2 Screenshots

About This File

Coldplay
Live in the BBC Horseshoe
BBC Television Centre
London, England
June 18, 2008

Lineage: BBC Four HD on 28.2E (Astra 2G) > Zgemma H9S > FFMPEG (trim out idents) > finished.ts

Video: H264 Video 1920x1080i 16:9 10.5 Mb/s 25.00 fps 8-bit 4:2:0
Audio: AC3 384 Kbps 48.0 KHz 5.1 (stereo output only)

Setlist:
01. Life in Technicolor
02. Violet Hill
03. Clocks
04. In My Place
05. Viva La Vida
06. 42
07. Trouble
08. Lost!
09. Yellow (acoustic)
10. Fix You
11. Lovers in Japan

Note: Originally broadcast on BBC2 on June 18, 2008, rebroadcast on BBC Four on July 18, 2020.

Media Info:

 

General


ID                                       : 1 (0x1)
Format                                   : MPEG-TS
File size                                : 4.01 GiB
Duration                                 : 48 min 51 s
Overall bit rate mode                    : Variable
Overall bit rate                         : 11.8 Mb/s

Video
ID                                       : 256 (0x100)
Menu ID                                  : 1 (0x1)
Format                                   : AVC
Format/Info                              : Advanced Video Codec
Format profile                           : [email protected]
Format settings                          : CABAC / 4 Ref Frames
Format settings, CABAC                   : Yes
Format settings, Reference frames        : 4 frames
Format settings, GOP                     : M=8, N=24
Codec ID                                 : 27
Duration                                 : 48 min 51 s
Bit rate                                 : 10.5 Mb/s
Width                                    : 1 920 pixels
Height                                   : 1 080 pixels
Display aspect ratio                     : 16:9
Frame rate                               : 25.000 FPS
Standard                                 : Component
Color space                              : YUV
Chroma subsampling                       : 4:2:0
Bit depth                                : 8 bits
Scan type                                : MBAFF
Scan type, store method                  : Interleaved fields
Scan order                               : Top Field First
Bits/(Pixel*Frame)                       : 0.203
Stream size                              : 3.59 GiB (90%)
Color range                              : Limited
Color primaries                          : BT.709
Transfer characteristics                 : BT.709
Matrix coefficients                      : BT.709

Audio #1
ID                                       : 257 (0x101)
Menu ID                                  : 1 (0x1)
Format                                   : MPEG Audio
Format version                           : Version 1
Format profile                           : Layer 2
Codec ID                                 : 3
Duration                                 : 48 min 52 s
Bit rate mode                            : Constant
Bit rate                                 : 256 kb/s
Channel(s)                               : 2 channels
Sampling rate                            : 48.0 kHz
Frame rate                               : 41.667 FPS (1152 SPF)
Compression mode                         : Lossy
Delay relative to video                  : -1 s 444 ms
Stream size                              : 89.5 MiB (2%)
Language                                 : nar

Audio #2
ID                                       : 260 (0x104)
Menu ID                                  : 1 (0x1)
Format                                   : AC-3
Format/Info                              : Audio Coding 3
Commercial name                          : Dolby Digital
Codec ID                                 : 129
Duration                                 : 48 min 52 s
Bit rate mode                            : Constant
Bit rate                                 : 384 kb/s
Channel(s)                               : 6 channels
Channel layout                           : L R C LFE Ls Rs
Sampling rate                            : 48.0 kHz
Frame rate                               : 31.250 FPS (1536 SPF)
Compression mode                         : Lossy
Delay relative to video                  : -1 s 441 ms
Stream size                              : 134 MiB (3%)
Language                                 : English
Service kind                             : Complete Main

Text
ID                                       : 258 (0x102)
Menu ID                                  : 1 (0x1)
Format                                   : DVB Subtitle
Codec ID                                 : 6
Duration                                 : 48 min 40 s
Delay relative to video                  : 6 s 777 ms
Language                                 : English

Other
ID                                       : 259 (0x103)-888
Menu ID                                  : 1 (0x1)
Format                                   : Teletext
Language                                 : English

Menu
ID                                       : 4096 (0x1000)
Menu ID                                  : 1 (0x1)
Duration                                 : 48 min 51 s
List                                     : 256 (0x100) (AVC) / 257 (0x101) (MPEG Audio, nar) / 258 (0x102) (DVB Subtitle, English) / 259 (0x103)-888 (Teletext, en) / 260 (0x104) (AC-3, English)
Language                                 :  / nar / English / English / English
Service name                             : Service01
Service provider                         : FFmpeg
Service type                             : digital television

  • Love 2
 Share

×
×
  • Create New...