Jump to content
Search In
  • More options...
Find results that contain...
Find results in...
✨ STAY UP TO DATE WITH THE WORLD TOUR ✨

Rockfield: The Studio on The Farm (2020) [1080i]


2 Screenshots

About This File

Coldplay
Rockfield: The Studio on The Farm
First aired: July 18, 2020

Lineage: BBC Two Wales HD on 28.2E (Astra 2E) > Zgemma H9S > FFMPEG (trim out idents) > finished.ts

Video: H264 Video 1920x1080i 16:9 2675 kb/s 25.00 fps 8-bit 4:2:0
Audio: AC3 192 Kbps 48.0 KHz stereo

Note: Originally broadcast on BBC Two Wales and BBC Four on July 18, 2020.

The unlikely tale of how two Welsh farming brothers turned their dairy farm into a legendary recording studio. Coldplay's appearance only

Media Info:

 

General


ID                                       : 1 (0x1)
Format                                   : MPEG-TS
File size                                : 146 MiB
Duration                                 : 6 min 44 s
Overall bit rate mode                    : Variable
Overall bit rate                         : 3 018 kb/s

Video
ID                                       : 256 (0x100)
Menu ID                                  : 1 (0x1)
Format                                   : AVC
Format/Info                              : Advanced Video Codec
Format profile                           : [email protected]
Format settings                          : CABAC / 4 Ref Frames
Format settings, CABAC                   : Yes
Format settings, Reference frames        : 4 frames
Format settings, GOP                     : M=8, N=24
Codec ID                                 : 27
Duration                                 : 6 min 44 s
Bit rate                                 : 2 675 kb/s
Width                                    : 1 920 pixels
Height                                   : 1 080 pixels
Display aspect ratio                     : 16:9
Frame rate                               : 25.000 FPS
Standard                                 : Component
Color space                              : YUV
Chroma subsampling                       : 4:2:0
Bit depth                                : 8 bits
Scan type                                : MBAFF
Scan type, store method                  : Interleaved fields
Scan order                               : Top Field First
Bits/(Pixel*Frame)                       : 0.052
Stream size                              : 129 MiB (89%)
Color range                              : Limited
Color primaries                          : BT.709
Transfer characteristics                 : BT.709
Matrix coefficients                      : BT.709

Audio
ID                                       : 259 (0x103)
Menu ID                                  : 1 (0x1)
Format                                   : AC-3
Format/Info                              : Audio Coding 3
Commercial name                          : Dolby Digital
Codec ID                                 : 129
Duration                                 : 6 min 44 s
Bit rate mode                            : Constant
Bit rate                                 : 192 kb/s
Channel(s)                               : 2 channels
Channel layout                           : L R
Sampling rate                            : 48.0 kHz
Frame rate                               : 31.250 FPS (1536 SPF)
Compression mode                         : Lossy
Delay relative to video                  : -530 ms
Stream size                              : 9.27 MiB (6%)
Language                                 : English
Service kind                             : Complete Main

Text
ID                                       : 258 (0x102)
Menu ID                                  : 1 (0x1)
Format                                   : DVB Subtitle
Codec ID                                 : 6
Duration                                 : 6 min 44 s
Delay relative to video                  : -178 ms
Language                                 : English

Other
ID                                       : 257 (0x101)-888
Menu ID                                  : 1 (0x1)
Format                                   : Teletext
Language                                 : English

Menu
ID                                       : 4096 (0x1000)
Menu ID                                  : 1 (0x1)
Duration                                 : 6 min 44 s
List                                     : 256 (0x100) (AVC) / 257 (0x101)-888 (Teletext, en) / 258 (0x102) (DVB Subtitle, English) / 259 (0x103) (AC-3, English)
Language                                 :  / English / English / English
Service name                             : Service01
Service provider                         : FFmpeg
Service type                             : digital television

  • Like 1
  • Thanks 1
 Share


×
×
  • Create New...