Jump to content
Search In
  • More options...
Find results that contain...
Find results in...
✨ STAY UP TO DATE WITH THE WORLD TOUR ✨

[2014-09-19] iHeartRadio Festival, MGM Grand Garden Arena, Las Vegas, NV, USA [1080i | 35.6Mb/s]


2 Screenshots

About This File

Coldplay
iHeartRadio Music Festival
MGM Grand Garden Arena
Las Vegas, NV, USA
September 19, 2014

Lineage: Feed > Unknown > .ts

Video: H264 Video 1920x1080i 16:9 34.2 Mb/s 29.97 fps 8-bit 4:2:0
Audio: MPEG-2 384 Kbps 48.0 KHz stereo

Setlist:
01. Clocks
02. Viva La Vida
03. Paradise
04. Ink
05. A Sky Full of Stars

Media Info:

 

General


ID                                       : 1 (0x1)
Format                                   : MPEG-TS
File size                                : 6.93 GiB
Duration                                 : 27 min 52 s
Overall bit rate mode                    : Variable
Overall bit rate                         : 35.6 Mb/s

Video
ID                                       : 307 (0x133)
Menu ID                                  : 1 (0x1)
Format                                   : AVC
Format/Info                              : Advanced Video Codec
Format profile                           : [email protected]
Format settings                          : CABAC / 3 Ref Frames
Format settings, CABAC                   : Yes
Format settings, Reference frames        : 3 frames
Codec ID                                 : 27
Duration                                 : 27 min 52 s
Bit rate mode                            : Constant
Bit rate                                 : 34.2 Mb/s
Width                                    : 1 920 pixels
Height                                   : 1 080 pixels
Display aspect ratio                     : 16:9
Frame rate                               : 29.970 (30000/1001) FPS
Color space                              : YUV
Chroma subsampling                       : 4:2:0
Bit depth                                : 8 bits
Scan type                                : MBAFF
Scan type, store method                  : Separated fields
Scan order                               : Top Field First
Bits/(Pixel*Frame)                       : 0.551
Stream size                              : 6.44 GiB (93%)
Color range                              : Limited
Color primaries                          : BT.709
Transfer characteristics                 : BT.709
Matrix coefficients                      : BT.709

Audio #1
ID                                       : 256 (0x100)
Menu ID                                  : 1 (0x1)
Format                                   : MPEG Audio
Format version                           : Version 1
Format profile                           : Layer 2
Codec ID                                 : 3
Duration                                 : 27 min 52 s
Bit rate mode                            : Constant
Bit rate                                 : 384 kb/s
Channel(s)                               : 2 channels
Sampling rate                            : 48.0 kHz
Frame rate                               : 41.667 FPS (1152 SPF)
Compression mode                         : Lossy
Delay relative to video                  : 10 ms
Stream size                              : 76.6 MiB (1%)

Audio #2
ID                                       : 257 (0x101)
Menu ID                                  : 1 (0x1)
Format                                   : MPEG Audio
Format version                           : Version 1
Format profile                           : Layer 2
Codec ID                                 : 3
Duration                                 : 27 min 52 s
Bit rate mode                            : Constant
Bit rate                                 : 384 kb/s
Channel(s)                               : 2 channels
Sampling rate                            : 48.0 kHz
Frame rate                               : 41.667 FPS (1152 SPF)
Compression mode                         : Lossy
Delay relative to video                  : 10 ms
Stream size                              : 76.6 MiB (1%)

  • Thanks 2
  • Love 1
 Share

×
×
  • Create New...