Jump to content
Search In
  • More options...
Find results that contain...
Find results in...
✨ STAY UP TO DATE WITH THE WORLD TOUR ✨

[2021-10-17] Earthshot Prize Awards, Alexandra Palace Theatre, London, England [1080i | 5942kb/s]


2 Screenshots

About This File

Coldplay
Earthshot Prize Awards
Alexandra Palace Theatre
London, England
Oct 17, 2021

Lineage: 28.2E (Astra 2E) > Zgemma H2S > LosslessCut > file.ts

Video: H264 Video 1920x1080i 16:9 5942 kb/s 25.00 fps 8-bit 4:2:0
Audio: AC3 192 Kbps 48.0 KHz stereo

Setlist:
01. My Universe

Notes: Live broadcast from outside the venue for 'The Earthshot Awards'. Performance powered by cyclists. Featuring BTS projected on the front of the building.Media Info:

Spoiler

 

General
ID                                       : 1 (0x1)
Format                                   : MPEG-TS
File size                                : 205 MiB
Duration                                 : 4 min 26 s
Overall bit rate mode                    : Variable
Overall bit rate                         : 6 455 kb/s

Video
ID                                       : 256 (0x100)
Menu ID                                  : 1 (0x1)
Format                                   : AVC
Format/Info                              : Advanced Video Codec
Format profile                           : [email protected]
Format settings                          : CABAC / 4 Ref Frames
Format settings, CABAC                   : Yes
Format settings, Reference frames        : 4 frames
Codec ID                                 : 27
Duration                                 : 4 min 26 s
Bit rate                                 : 5 942 kb/s
Width                                    : 1 920 pixels
Height                                   : 1 080 pixels
Display aspect ratio                     : 16:9
Frame rate                               : 25.000 FPS
Standard                                 : Component
Color space                              : YUV
Chroma subsampling                       : 4:2:0
Bit depth                                : 8 bits
Scan type                                : MBAFF
Scan type, store method                  : Separated fields
Scan order                               : Top Field First
Bits/(Pixel*Frame)                       : 0.115
Stream size                              : 189 MiB (92%)
Color range                              : Limited
Color primaries                          : BT.709
Transfer characteristics                 : BT.709
Matrix coefficients                      : BT.709

Audio
ID                                       : 258 (0x102)
Menu ID                                  : 1 (0x1)
Format                                   : AC-3
Format/Info                              : Audio Coding 3
Commercial name                          : Dolby Digital
Codec ID                                 : 129
Duration                                 : 4 min 28 s
Bit rate mode                            : Constant
Bit rate                                 : 192 kb/s
Channel(s)                               : 2 channels
Channel layout                           : L R
Sampling rate                            : 48.0 kHz
Frame rate                               : 31.250 FPS (1536 SPF)
Compression mode                         : Lossy
Delay relative to video                  : -1 s 783 ms
Stream size                              : 6.14 MiB (3%)
Language                                 : English
Service kind                             : Complete Main

Other
ID                                       : 257 (0x101)-888
Menu ID                                  : 1 (0x1)
Format                                   : Teletext
Language                                 : English

Menu
ID                                       : 4096 (0x1000)
Menu ID                                  : 1 (0x1)
Duration                                 : 4 min 26 s
List                                     : 256 (0x100) (AVC) / 257 (0x101)-888 (Teletext, en) / 258 (0x102) (AC-3, English)
Language                                 :  / English / English
Service name                             : Service01
Service provider                         : FFmpeg
Service type                             : digital television

 

 

 Share


×
×
  • Create New...