Jump to content
Search In
  • More options...
Find results that contain...
Find results in...
✨ STAY UP TO DATE WITH THE WORLD TOUR ✨

[2021-09-18] iHeartRadio Music Festival, T-Mobile Arena, Las Vegas, NV, USA [1080i | 32Mb/s]


2 Screenshots

About This File

Coldplay
iHeartRadio Music Festival
T-Mobile Arena
Las Vegas, NV, USA
Sep 18, 2021

Lineage: Sat feed > Unknown > file.ts

Video: H264 Video 1920x1080i 16:9 32.0 Mb/s 25.00 fps 8-bit 4:2:0
Audio: MP2 192 Kbps 48.0 KHz stereo

Setlist:
01. Music of the Spheres
02. Higher Power
03. Viva La Vida
04. Fix You
05. Human Heart (with We Are KING)
06. A Sky Full of Stars

Notes: Thanks 'Melodie' on ShareMania for capturing.Media Info:

Spoiler

 

General
ID                                       : 1 (0x1)
Format                                   : MPEG-TS
File size                                : 5.99 GiB
Duration                                 : 26 min 2 s
Overall bit rate mode                    : Variable
Overall bit rate                         : 32.9 Mb/s

Video
ID                                       : 256 (0x100)
Menu ID                                  : 1 (0x1)
Format                                   : AVC
Format/Info                              : Advanced Video Codec
Format profile                           : [email protected]
Format settings                          : CABAC / 3 Ref Frames
Format settings, CABAC                   : Yes
Format settings, Reference frames        : 3 frames
Codec ID                                 : 27
Duration                                 : 26 min 2 s
Bit rate mode                            : Constant
Bit rate                                 : 32.0 Mb/s
Width                                    : 1 920 pixels
Height                                   : 1 080 pixels
Display aspect ratio                     : 16:9
Frame rate                               : 25.000 FPS
Color space                              : YUV
Chroma subsampling                       : 4:2:0
Bit depth                                : 8 bits
Scan type                                : MBAFF
Scan type, store method                  : Interleaved fields
Scan order                               : Top Field First
Bits/(Pixel*Frame)                       : 0.617
Stream size                              : 5.66 GiB (94%)
Color range                              : Limited
Color primaries                          : BT.709
Transfer characteristics                 : BT.709
Matrix coefficients                      : BT.709

Audio
ID                                       : 257 (0x101)
Menu ID                                  : 1 (0x1)
Format                                   : MPEG Audio
Format version                           : Version 1
Format profile                           : Layer 2
Codec ID                                 : 3
Duration                                 : 26 min 2 s
Bit rate mode                            : Constant
Bit rate                                 : 192 kb/s
Channel(s)                               : 2 channels
Sampling rate                            : 48.0 kHz
Frame rate                               : 41.667 FPS (1152 SPF)
Compression mode                         : Lossy
Delay relative to video                  : -120 ms
Stream size                              : 35.8 MiB (1%)
Language                                 : English

Menu
ID                                       : 4096 (0x1000)
Menu ID                                  : 1 (0x1)
Duration                                 : 26 min 2 s
List                                     : 256 (0x100) (AVC) / 257 (0x101) (MPEG Audio, English)
Language                                 :  / English
Service name                             : Service01
Service provider                         : FFmpeg
Service type                             : digital television

 

 

 Share


×
×
  • Create New...