Jump to content
Search In
  • More options...
Find results that contain...
Find results in...
✨ STAY UP TO DATE WITH THE WORLD TOUR ✨

[2021-10-06] ProSieben in Concert, Studio Berlin Adlershof, Berlin, Germany [1080i | 7292kb/s]


2 Screenshots

About This File

Coldplay
ProSieben in Concert
Studio Berlin Adlershof
Berlin, Germany 
Oct 06, 2021

Lineage: Unknown > file.ts

Video: H264 Video 1920x1080i 16:9 7292 kb/s 25.00 fps 8-bit 4:2:0
Audio: AC3 384 Kbps 48.0 KHz stereo

Setlist:
01. Music of the Spheres
02. Higher Power
03. Clocks
04. Fix You
05. Viva La Vida
06. Human Heart
07. People of The Pride
08. My Universe
09. Yellow
10. A Sky Full of Stars
11. Coloratura

Notes: Thanks 'ilya2129' on ShareMania for capturing. Broadcast on ProSieben on October 12, 2021.Media Info:

Spoiler

 

General
ID                                       : 1 (0x1)
Format                                   : MPEG-TS
File size                                : 2.93 GiB
Duration                                 : 51 min 57 s
Overall bit rate mode                    : Variable
Overall bit rate                         : 8 079 kb/s

Video
ID                                       : 302 (0x12E)
Menu ID                                  : 1 (0x1)
Format                                   : AVC
Format/Info                              : Advanced Video Codec
Format profile                           : [email protected]
Format settings                          : CABAC / 4 Ref Frames
Format settings, CABAC                   : Yes
Format settings, Reference frames        : 4 frames
Codec ID                                 : 27
Duration                                 : 51 min 57 s
Bit rate                                 : 7 292 kb/s
Width                                    : 1 920 pixels
Height                                   : 1 080 pixels
Display aspect ratio                     : 16:9
Frame rate                               : 25.000 FPS
Standard                                 : Component
Color space                              : YUV
Chroma subsampling                       : 4:2:0
Bit depth                                : 8 bits
Scan type                                : Interlaced
Scan type, store method                  : Separated fields
Scan order                               : Top Field First
Bits/(Pixel*Frame)                       : 0.141
Stream size                              : 2.65 GiB (90%)
Color range                              : Limited
Color primaries                          : BT.709
Transfer characteristics                 : BT.709
Matrix coefficients                      : BT.709

Audio
ID                                       : 303 (0x12F)
Menu ID                                  : 1 (0x1)
Format                                   : AC-3
Format/Info                              : Audio Coding 3
Commercial name                          : Dolby Digital
Codec ID                                 : 6
Duration                                 : 51 min 57 s
Bit rate mode                            : Constant
Bit rate                                 : 384 kb/s
Channel(s)                               : 2 channels
Channel layout                           : L R
Sampling rate                            : 48.0 kHz
Frame rate                               : 31.250 FPS (1536 SPF)
Compression mode                         : Lossy
Stream size                              : 143 MiB (5%)
Language                                 : German
Service kind                             : Complete Main

Text
ID                                       : 310 (0x136)-149
Menu ID                                  : 1 (0x1)
Format                                   : Teletext Subtitle
Language                                 : German

Other
ID                                       : 310 (0x136)-100
Menu ID                                  : 1 (0x1)
Format                                   : Teletext
Language                                 : German

 

 

  • Like 1
  • Thanks 1
  • Love 1
 Share


×
×
  • Create New...