Jump to content
Search In
  • More options...
Find results that contain...
Find results in...
✨ STAY UP TO DATE WITH THE WORLD TOUR ✨

[2000-06-26] 2 Meter Sessies, Wisseloord Studios, Hilversum, Netherlands [540p | 2922kb/s]


2 Screenshots

About This File

Coldplay
2 Meter Sessies
Wisseloord Studios
Hilversum, Netherlands 
Jun 26, 2000

Lineage: The Coda Collection (Prime Video) > file.mp4

Video: H264 Video 960x540p 16:9 2922 kb/s 25.00 fps 8-bit 4:2:0
Audio: EAC3 224 Kbps 48.0 KHz stereo

Setlist:
01. Don't Panic
02. Shiver
03. High Speed
04. Yellow
05. Trouble
06. We Never Change

Notes: You Only Live Twice and Harmless were not broadcast. According to the official documentary, there were 9 songs performed, although it is unclear what the other song was.

Media Info:

Spoiler

 

General
Format                                   : MPEG-4
Format profile                           : Base Media / Version 2
Codec ID                                 : mp42 (mp42/iso6)
File size                                : 595 MiB
Duration                                 : 26 min 23 s
Overall bit rate                         : 3 149 kb/s
Movie name                               : Coldplay: Amsterdam Sessions 2000
Encoded date                             : UTC 2021-10-23 17:03:13
Tagged date                              : UTC 2021-10-23 17:03:13
Comment                                  : At its first performance outside of England, Coldplay plays an intimate, understated set — approximately one month before the release of its smash "Parachutes" debut album in June 2000. It’s a rare, valuable look at the band moments before it became a global phenomenon.

Video
ID                                       : 1
Format                                   : AVC
Format/Info                              : Advanced Video Codec
Format profile                           : [email protected]
Format settings                          : CABAC / 5 Ref Frames
Format settings, CABAC                   : Yes
Format settings, Reference frames        : 5 frames
Codec ID                                 : avc1
Codec ID/Info                            : Advanced Video Coding
Duration                                 : 26 min 23 s
Bit rate                                 : 2 922 kb/s
Maximum bit rate                         : 5 416 kb/s
Width                                    : 960 pixels
Height                                   : 540 pixels
Display aspect ratio                     : 16:9
Frame rate mode                          : Constant
Frame rate                               : 25.000 FPS
Color space                              : YUV
Chroma subsampling                       : 4:2:0
Bit depth                                : 8 bits
Scan type                                : Progressive
Bits/(Pixel*Frame)                       : 0.225
Stream size                              : 552 MiB (93%)
Encoded date                             : UTC 2021-10-23 17:03:13
Tagged date                              : UTC 2021-10-23 17:03:13
Color range                              : Limited
Color primaries                          : BT.709
Transfer characteristics                 : BT.709
Matrix coefficients                      : BT.709
Codec configuration box                  : avcC

Audio
ID                                       : 2
Format                                   : E-AC-3
Format/Info                              : Enhanced AC-3
Commercial name                          : Dolby Digital Plus
Codec ID                                 : ec-3
Duration                                 : 26 min 23 s
Bit rate mode                            : Constant
Bit rate                                 : 224 kb/s
Channel(s)                               : 2 channels
Channel layout                           : L R
Sampling rate                            : 48.0 kHz
Frame rate                               : 31.250 FPS (1536 SPF)
Compression mode                         : Lossy
Stream size                              : 42.3 MiB (7%)
Language                                 : English
Service kind                             : Complete Main
Encoded date                             : UTC 2021-10-23 17:03:13
Tagged date                              : UTC 2021-10-23 17:03:13

 

 

  • Love 3
 Share


×
×
  • Create New...