Jump to content
Search In
  • More options...
Find results that contain...
Find results in...
✨ STAY UP TO DATE WITH THE WORLD TOUR ✨

[2000-06-24] Yellow - Glastonbury Festival, Worthy Farm, Pilton, England, UK [1080i | 7086kb/s]


2 Screenshots

About This File

Coldplay
Yellow
Glastonbury Festival
Worthy Farm
Pilton, England
June 24, 2000

Lineage: BBC Four HD on 28.2E (Astra 2G) > TBS6909 > > TVHeadend > VideoReDo TVSuite (v5.1.1.719) Fast Frame Copy > finished.ts

Video: H264 Video 1920x1080i 16:9 6283 kb/s 25.00 fps 8-bit 4:2:0
Audio: AC3 192 Kbps 48.0 KHz 5.1 (only stereo)

Setlist:
01. Yellow

Note: This version is higher bitrate than the BBC Two version, has the original Glastonbury 2000 lower-third but has the BBC Four DOG in the top left.

BBC Two Version: 

 

 

Media Info:

 

General


ID                                       : 1 (0x1)
Format                                   : MPEG-TS
File size                                : 220 MiB
Duration                                 : 4 min 20 s
Overall bit rate mode                    : Variable
Overall bit rate                         : 7 086 kb/s

Video
ID                                       : 5300 (0x14B4)
Menu ID                                  : 8951 (0x22F7)
Format                                   : AVC
Format/Info                              : Advanced Video Codec
Format profile                           : [email protected]
Format settings                          : CABAC / 4 Ref Frames
Format settings, CABAC                   : Yes
Format settings, Reference frames        : 4 frames
Codec ID                                 : 27
Duration                                 : 4 min 19 s
Bit rate                                 : 6 283 kb/s
Width                                    : 1 920 pixels
Height                                   : 1 080 pixels
Display aspect ratio                     : 16:9
Frame rate                               : 25.000 FPS
Standard                                 : Component
Color space                              : YUV
Chroma subsampling                       : 4:2:0
Bit depth                                : 8 bits
Scan type                                : Interlaced
Scan type, store method                  : Separated fields
Scan order                               : Top Field First
Bits/(Pixel*Frame)                       : 0.121
Stream size                              : 195 MiB (88%)
Color range                              : Limited
Color primaries                          : BT.709
Transfer characteristics                 : BT.709
Matrix coefficients                      : BT.709

Audio #1
ID                                       : 5301 (0x14B5)
Menu ID                                  : 8951 (0x22F7)
Format                                   : AC-3
Format/Info                              : Audio Coding 3
Commercial name                          : Dolby Digital
Codec ID                                 : 6
Duration                                 : 4 min 20 s
Bit rate mode                            : Constant
Bit rate                                 : 192 kb/s
Channel(s)                               : 2 channels
Channel layout                           : L R
Sampling rate                            : 48.0 kHz
Frame rate                               : 31.250 FPS (1536 SPF)
Compression mode                         : Lossy
Delay relative to video                  : -280 ms
Stream size                              : 5.95 MiB (3%)
Language                                 : English
Service kind                             : Complete Main

Audio #2
ID                                       : 5302 (0x14B6)
Menu ID                                  : 8951 (0x22F7)
Format                                   : MPEG Audio
Format version                           : Version 1
Format profile                           : Layer 2
Codec ID                                 : 3
Duration                                 : 4 min 20 s
Bit rate mode                            : Constant
Bit rate                                 : 256 kb/s
Channel(s)                               : 2 channels
Sampling rate                            : 48.0 kHz
Frame rate                               : 41.667 FPS (1152 SPF)
Compression mode                         : Lossy
Delay relative to video                  : -280 ms
Stream size                              : 7.94 MiB (4%)
Language                                 : nar

Other
ID                                       : 5303 (0x14B7)-888
Menu ID                                  : 8951 (0x22F7)
Format                                   : Teletext
Language                                 : English

  • Thanks 1
  • Love 1
 Share


×
×
  • Create New...