Jump to content
Search In
  • More options...
Find results that contain...
Find results in...
✨ STAY UP TO DATE WITH THE WORLD TOUR ✨

[2011-10-31] La Cigale, Paris, France [1080p | 9596kb/s]


2 Screenshots

About This File

Coldplay
La Cigale
Paris, France
Oct 31, 2011

Lineage: Qello Concerts (Amazon Prime Video) > file.mp4

Video: H264 Video 1920x1080p 16:9 9596 kb/s 25.00 fps 8-bit 4:2:0
Audio: EAC3 224 Kbps 48.0 KHz stereo

Setlist:
01. Mylo Xyloto
02. Hurts Like Heaven
03. Yellow
04. In My Place
05. Major Minus
06. The Scientist
07. Violet Hill
08. God Put a Smile Upon Your Face
09. Viva La Vida
10. Charlie Brown
11. Life Is For Living
Encore:
12. Clocks
13. Fix You (with Rehab by Amy Winehouse as intro)

Notes: Paradise, Up in Flames and Every Teardrop is a Waterfall were not broadcast.

Media Info:

Spoiler

 

General
Format                                   : MPEG-4
Format profile                           : Base Media / Version 2
Codec ID                                 : mp42 (mp42/iso6)
File size                                : 4.12 GiB
Duration                                 : 57 min 57 s
Overall bit rate mode                    : Variable
Overall bit rate                         : 10.2 Mb/s
Movie name                               : Coldplay - Live at La Cigale 2012
Encoded date                             : UTC 2021-10-23 16:39:34
Tagged date                              : UTC 2021-10-23 16:39:34
Comment                                  : The crowd goes wild for Coldplay at this energetic show at La Cigale, in Paris. Watch the award-winning British band in their element rocking out full throttle, offering up hit after hit.

Video
ID                                       : 1
Format                                   : AVC
Format/Info                              : Advanced Video Codec
Format profile                           : [email protected]
Format settings                          : CABAC / 4 Ref Frames
Format settings, CABAC                   : Yes
Format settings, Reference frames        : 4 frames
Codec ID                                 : avc1
Codec ID/Info                            : Advanced Video Coding
Duration                                 : 57 min 57 s
Bit rate                                 : 9 956 kb/s
Maximum bit rate                         : 23.3 Mb/s
Width                                    : 1 920 pixels
Height                                   : 1 080 pixels
Display aspect ratio                     : 16:9
Frame rate mode                          : Constant
Frame rate                               : 25.000 FPS
Color space                              : YUV
Chroma subsampling                       : 4:2:0
Bit depth                                : 8 bits
Scan type                                : Progressive
Bits/(Pixel*Frame)                       : 0.192
Stream size                              : 4.03 GiB (98%)
Encoded date                             : UTC 2021-10-23 16:39:34
Tagged date                              : UTC 2021-10-23 16:39:34
Color range                              : Limited
Color primaries                          : BT.709
Transfer characteristics                 : BT.709
Matrix coefficients                      : BT.709
Codec configuration box                  : avcC

Audio
ID                                       : 2
Format                                   : E-AC-3
Format/Info                              : Enhanced AC-3
Commercial name                          : Dolby Digital Plus
Codec ID                                 : ec-3
Duration                                 : 57 min 57 s
Bit rate mode                            : Constant
Bit rate                                 : 224 kb/s
Channel(s)                               : 2 channels
Channel layout                           : L R
Sampling rate                            : 48.0 kHz
Frame rate                               : 31.250 FPS (1536 SPF)
Compression mode                         : Lossy
Stream size                              : 92.8 MiB (2%)
Language                                 : English
Service kind                             : Complete Main
Encoded date                             : UTC 2021-10-23 16:39:34
Tagged date                              : UTC 2021-10-23 16:39:34

Text
ID                                       : 3
Format                                   : Timed Text
Muxing mode                              : sbtl
Codec ID                                 : tx3g
Duration                                 : 57 min 37 s
Bit rate mode                            : Variable
Bit rate                                 : 40 b/s
Stream size                              : 16.9 KiB (0%)
Title                                    : English [CC] / English [CC]
Language                                 : English
Forced                                   : No
Encoded date                             : UTC 2021-10-23 16:39:34
Tagged date                              : UTC 2021-10-23 16:39:34

 

 

  • Like 1
  • Love 1
 Share


×
×
  • Create New...