Jump to content
Search In
  • More options...
Find results that contain...
Find results in...
✨ STAY UP TO DATE WITH THE WORLD TOUR ✨

[2021-12-04] Coupang Play Concert, Islington Assembly Hall, London, England [1080i | 29.1 Mb/s]


2 Screenshots

About This File

Coldplay
Coupang Play Concert
Islington Assembly Hall
London, England
Dec 4, 2021

Lineage: Satellite Feed (either 0.8W or 23.5E) > Unknown > file.ts

Video: H264 Video 1920x1080i 16:9 (2.39:1 picture) 29.1 Mb/s 29.97 fps 8-bit 4:2:0
Audio: MPEG2 384 Kbps 48.0 KHz stereo

Setlist:
Music of The Spheres
01. Higher Power
02. Clocks
03. Fix You
04. Viva La Vida
05. Human Heart (with We Are KING)
06. People of The Pride
07. My Universe
08. Yellow (Acoustic)
09. A Sky Full of Stars
10. Coloratura

Notes: Coupang Play logo appears in unused frame periodically. Private gig in London streamed live for Coupang Play. Includes interview at beginning.

Media Info:

Spoiler

 

General
ID                                       : 1 (0x1)
Format                                   : MPEG-TS
File size                                : 16.1 GiB
Duration                                 : 1 h 14 min
Overall bit rate mode                    : Variable
Overall bit rate                         : 31.1 Mb/s

Video
ID                                       : 308 (0x134)
Menu ID                                  : 1 (0x1)
Format                                   : AVC
Format/Info                              : Advanced Video Codec
Format profile                           : [email protected]
Format settings                          : CABAC / 4 Ref Frames
Format settings, CABAC                   : Yes
Format settings, Reference frames        : 4 frames
Format settings, GOP                     : M=3, N=30
Codec ID                                 : 27
Duration                                 : 1 h 14 min
Bit rate                                 : 29.1 Mb/s
Width                                    : 1 920 pixels
Height                                   : 1 080 pixels
Display aspect ratio                     : 16:9
Frame rate                               : 29.970 (30000/1001) FPS
Color space                              : YUV
Chroma subsampling                       : 4:2:0
Bit depth                                : 8 bits
Scan type                                : Interlaced
Scan type, store method                  : Separated fields
Scan order                               : Top Field First
Bits/(Pixel*Frame)                       : 0.469
Stream size                              : 15.1 GiB (94%)
Color range                              : Limited
Color primaries                          : BT.709
Transfer characteristics                 : BT.709
Matrix coefficients                      : BT.709

Audio
ID                                       : 256 (0x100)
Menu ID                                  : 1 (0x1)
Format                                   : MPEG Audio
Format version                           : Version 1
Format profile                           : Layer 2
Codec ID                                 : 3
Duration                                 : 1 h 14 min
Bit rate mode                            : Constant
Bit rate                                 : 384 kb/s
Channel(s)                               : 2 channels
Sampling rate                            : 48.0 kHz
Frame rate                               : 41.667 FPS (1152 SPF)
Compression mode                         : Lossy
Delay relative to video                  : 55 ms
Stream size                              : 204 MiB (1%)
Language                                 : English

Menu
ID                                       : 32 (0x20)
Menu ID                                  : 1 (0x1)
Duration                                 : 1 h 14 min
List                                     : 308 (0x134) (AVC) / 256 (0x100) (MPEG Audio, English)
Language                                 :  / English
Maximum bit rate                         : 200000000

 

 

  • Like 2
 Share


×
×
  • Create New...