Jump to content
Search In
  • More options...
Find results that contain...
Find results in...
✨ STAY UP TO DATE WITH THE WORLD TOUR ✨

[2022-12-10] Capital FM Jingle Bell Ball, The O2 Arena, London, England [1080i | 13.2Mb/s]


1 Screenshot

About This File

Coldplay
Capital FM Jingle Bell Ball
The O2 Arena
London, England
Dec 10, 2022

Lineage: 23.5E (Astra 3B) > ZGemma H9.2S > LosslessCut > file.ts

Video: H264 Video 1920x1080i 16:9 13.2 Mb/s 25.00 fps 8-bit 4:2:0
Audio: MP2 384 Kbps 48.0 KHz stereo

Setlist:
Intro (Flying Theme)
Music of The Spheres
01. Higher Power
02. Adventure of A Lifetime
03. Paradise
04. Viva La Vida
05. Fix You
06. Something Just Like This
07. My Universe
08. A Sky Full of Stars
09. Have Yourself a Merry Little Christmas (Hugh Martin cover)

Notes: Concert streamed on the Global Player as well as on TikTok.

Media Info:

Spoiler

General
ID                                       : 1 (0x1)
Format                                   : MPEG-TS
File size                                : 4.86 GiB
Duration                                 : 47 min 15 s
Overall bit rate mode                    : Variable
Overall bit rate                         : 14.7 Mb/s

Video
ID                                       : 256 (0x100)
Menu ID                                  : 1 (0x1)
Format                                   : AVC
Format/Info                              : Advanced Video Codec
Format profile                           : [email protected]
Format settings                          : CABAC / 4 Ref Frames
Format settings, CABAC                   : Yes
Format settings, Reference frames        : 4 frames
Format settings, GOP                     : M=3, N=24
Codec ID                                 : 27
Duration                                 : 47 min 15 s
Bit rate                                 : 13.2 Mb/s
Width                                    : 1 920 pixels
Height                                   : 1 080 pixels
Display aspect ratio                     : 16:9
Frame rate                               : 25.000 FPS
Color space                              : YUV
Chroma subsampling                       : 4:2:0
Bit depth                                : 8 bits
Scan type                                : Interlaced
Scan type, store method                  : Separated fields
Scan order                               : Top Field First
Bits/(Pixel*Frame)                       : 0.255
Stream size                              : 4.36 GiB (90%)
Color range                              : Limited
Color primaries                          : BT.709
Transfer characteristics                 : BT.709
Matrix coefficients                      : BT.709

Audio #1
ID                                       : 257 (0x101)
Menu ID                                  : 1 (0x1)
Format                                   : MPEG Audio
Format version                           : Version 1
Format profile                           : Layer 2
Codec ID                                 : 3
Duration                                 : 47 min 15 s
Bit rate mode                            : Constant
Bit rate                                 : 384 kb/s
Channel(s)                               : 2 channels
Sampling rate                            : 48.0 kHz
Frame rate                               : 41.667 FPS (1152 SPF)
Compression mode                         : Lossy
Delay relative to video                  : -570 ms
Stream size                              : 130 MiB (3%)
Language                                 : English

Audio #2
ID                                       : 258 (0x102)
Menu ID                                  : 1 (0x1)
Format                                   : MPEG Audio
Format version                           : Version 1
Format profile                           : Layer 2
Codec ID                                 : 3
Duration                                 : 47 min 15 s
Bit rate mode                            : Constant
Bit rate                                 : 384 kb/s
Channel(s)                               : 2 channels
Sampling rate                            : 48.0 kHz
Frame rate                               : 41.667 FPS (1152 SPF)
Compression mode                         : Lossy
Delay relative to video                  : -570 ms
Stream size                              : 130 MiB (3%)
Language                                 : English

Menu
ID                                       : 4096 (0x1000)
Menu ID                                  : 1 (0x1)
Format                                   : AVC / MPEG Audio / MPEG Audio
Duration                                 : 47 min 15 s
List                                     : 256 (0x100) (AVC) / 257 (0x101) (MPEG Audio, English) / 258 (0x102) (MPEG Audio, English)
Language                                 :  / English / English
Service name                             : Service01
Service provider                         : FFmpeg
Service type                             : digital television

 

 Share


×
×
  • Create New...