Jump to content
Search In
  • More options...
Find results that contain...
Find results in...
✨ STAY UP TO DATE WITH THE WORLD TOUR ✨

Coldplay - Making of 'Speed of Sound' Music Video [576i | 29.2Mb/s]


2 Screenshots

About This File

Coldplay
Making of 'Speed of Sound' Music Video
Sony Studios
Culver City, CA, USA
June 1, 2005

Lineage: Betacam SP Tape > Sony J-3SDI > Blackmagic Decklink > Final Cut 7 > ProRes > Adobe Media Encoder > ProRes LT > finished.mov

Video: ProRes 422 LT Video 720x576i 4:3 27.7Mb/s 25.00 fps 10-bit 4:2:2
Audio: PCM 1536kb/s 48.0kHz stereo

Note: Edited at Metropolis Studios, London with VT Clock reading June 1, 2005 as the date. Mastered at Abbey Road Studios, Video Services Department for EMI. Dolby C NR

Media Info:

 

General


Complete name                            : Coldplay - Making of 'Speed of Sound' Music Video.mov
Format                                   : MPEG-4
Format profile                           : QuickTime
Codec ID                                 : qt   2005.03 (qt  )
File size                                : 1.44 GiB
Duration                                 : 7 min 2 s
Overall bit rate mode                    : Variable
Overall bit rate                         : 29.2 Mb/s
Encoded date                             : UTC 2020-04-05 22:06:53
Tagged date                              : UTC 2020-04-03 22:08:43
Writing library                          : Apple QuickTime
TIM                                      : 00:56:40:19
TSC                                      : 25
TSZ                                      : 1

 

Video
ID                                       : 1
Format                                   : ProRes
Format version                           : Version 0
Format profile                           : 422 LT
Codec ID                                 : apcs
Duration                                 : 7 min 2 s
Bit rate mode                            : Variable
Bit rate                                 : 27.7 Mb/s
Width                                    : 720 pixels
Clean aperture width                     : 703 pixels
Height                                   : 576 pixels
Clean aperture height                    : 576 pixels
Display aspect ratio                     : 4:3
Clean aperture display aspect ratio      : 4:3
Frame rate mode                          : Constant
Frame rate                               : 25.000 FPS
Standard                                 : PAL
Color space                              : YUV
Chroma subsampling                       : 4:2:2
Scan type                                : Interlaced
Scan type, store method                  : Interleaved fields
Scan order                               : Top Field First
Bits/(Pixel*Frame)                       : 2.669
Stream size                              : 1.36 GiB (95%)
Writing library                          : Apple
Language                                 : English
Encoded date                             : UTC 2020-04-05 22:06:53
Tagged date                              : UTC 2020-04-05 22:06:53
Color primaries                          : BT.601 PAL
Transfer characteristics                 : BT.709
Matrix coefficients                      : BT.601

 

Audio
ID                                       : 2
Format                                   : PCM
Format settings                          : Little / Signed
Codec ID                                 : sowt
Duration                                 : 7 min 2 s
Bit rate mode                            : Constant
Bit rate                                 : 1 536 kb/s
Channel(s)                               : 2 channels
Channel layout                           : L R
Sampling rate                            : 48.0 kHz
Bit depth                                : 16 bits
Stream size                              : 77.3 MiB (5%)
Language                                 : English
Encoded date                             : UTC 2020-04-05 22:06:53
Tagged date                              : UTC 2020-04-05 22:06:53

 

Other
ID                                       : 3
Type                                     : Time code
Format                                   : QuickTime TC
Duration                                 : 7 min 2 s
Frame rate                               : 25.000 FPS
Time code of first frame                 : 00:56:40:19
Time code, striped                       : Yes
Title                                    : 001
Language                                 : English
Encoded date                             : UTC 2020-04-05 22:06:53
Tagged date                              : UTC 2020-04-05 22:06:53

 

 

 

 Share


×
×
  • Create New...