Jump to content
Search In
  • More options...
Find results that contain...
Find results in...
✨ STAY UP TO DATE WITH THE WORLD TOUR ✨

[2019-11-02] Saturday Night Live, New York, NY, USA [1080i | 25.2Mb/s]


2 Screenshots

About This File

Coldplay
Saturday Night Live
New York, NY, USA
November 2, 2019

Lineage: Feed > Unknown > file.mkv > Avidemux > finished.ts

Video: H264 Video 1920x1080i 16:9 23.6 Mb/s 29.97 fps 8-bit 4:2:0
Audio: EAC3 384 Kbps 48.0 KHz 5.1

Setlist:
01. Orphans
02. Everyday Life

Note: Captured by MapleGirl on ShareMania

Media Info:

 

General


ID                                       : 1 (0x1)
Complete name                            : Coldplay - 2019-11-02 Saturday Night Live, New York, NY, USA.ts
Format                                   : MPEG-TS
File size                                : 1.67 GiB
Duration                                 : 9 min 28 s
Overall bit rate mode                    : Variable
Overall bit rate                         : 25.2 Mb/s
Movie name                               : Saturday Night Live
Law rating                               : TV-14 (DL)

Video
ID                                       : 256 (0x100)
Menu ID                                  : 1 (0x1)
Format                                   : AVC
Format/Info                              : Advanced Video Codec
Format profile                           : [email protected]
Format settings                          : CABAC / 4 Ref Frames
Format settings, CABAC                   : Yes
Format settings, Reference frames        : 4 frames
Format settings, GOP                     : M=4, N=32
Codec ID                                 : 27
Duration                                 : 9 min 28 s
Bit rate                                 : 23.6 Mb/s
Width                                    : 1 920 pixels
Height                                   : 1 080 pixels
Display aspect ratio                     : 16:9
Frame rate                               : 29.970 (30000/1001) FPS
Color space                              : YUV
Chroma subsampling                       : 4:2:0
Bit depth                                : 8 bits
Scan type                                : Interlaced
Scan type, store method                  : Separated fields
Scan order                               : Top Field First
Bits/(Pixel*Frame)                       : 0.380
Stream size                              : 1.56 GiB (94%)
Color range                              : Limited
Color primaries                          : BT.709
Transfer characteristics                 : BT.709
Matrix coefficients                      : BT.709

Audio
ID                                       : 257 (0x101)
Menu ID                                  : 1 (0x1)
Format                                   : E-AC-3
Format/Info                              : Enhanced AC-3
Commercial name                          : Dolby Digital Plus
Codec ID                                 : 135
Duration                                 : 9 min 28 s
Bit rate mode                            : Constant
Bit rate                                 : 384 kb/s
Channel(s)                               : 6 channels
Channel layout                           : L R C LFE Ls Rs
Sampling rate                            : 48.0 kHz
Frame rate                               : 31.250 FPS (1536 SPF)
Compression mode                         : Lossy
Delay relative to video                  : -77 ms
Stream size                              : 26.0 MiB (2%)
Service kind                             : Complete Main

Text #1
ID                                       : 256 (0x100)-CC1
Menu ID                                  : 1 (0x1)
Format                                   : EIA-608
Muxing mode                              : SCTE 128 / DTVCC Transport
Muxing mode, more info                   : Muxed in Video #1
Duration                                 : 9 min 28 s
Bit rate mode                            : Constant
Stream size                              : 0.00 Byte (0%)
CaptionServiceName                       : CC1

Text #2
ID                                       : 256 (0x100)-1
Menu ID                                  : 1 (0x1)
Format                                   : EIA-708
Muxing mode                              : SCTE 128 / DTVCC Transport
Muxing mode, more info                   : Muxed in Video #1
Duration                                 : 9 min 28 s
Bit rate mode                            : Constant
Stream size                              : 0.00 Byte (0%)

Menu
ID                                       : 4096 (0x1000)
Menu ID                                  : 1 (0x1)
Duration                                 : 9 min 28 s
List                                     : 256 (0x100) (AVC) / 257 (0x101) (E-AC-3)
Title                                    : Saturday Night Live
Service name                             : Service01
Service provider                         : FFmpeg
Service type                             : digital television
Law rating                               : TV-14 (DL)

 Share


×
×
  • Create New...