Jump to content
Search In
  • More options...
Find results that contain...
Find results in...
✨ STAY UP TO DATE WITH THE WORLD TOUR ✨

[2020-01-28] The GRAMMY Salute To Prince, Los Angeles Convention Center, Los Angeles, CA, USA [1080p | 11.5Mb/s]


2 Screenshots

About This File

Coldplay
Let's Go Crazy, The GRAMMY Salute to Prince
Los Angeles Convention Center
Los Angeles, CA, USA
January 28, 2020

Lineage: CBS All Access on Amazon > Unknown > file.mkv > AVIDemux > finished.ts

Video: H264 Video 1920x1080p 16:9 10000 Kb/s 30.00 fps 8-bit 4:2:0
Audio: EAC3 640 Kbps 48.0 KHz 5.1

Setlist:
01. Manic Monday (The Bangles cover) (with Susanna Hoffs)

 

 

Media Info:


General
ID                                       : 1 (0x1)
Complete name                            : Coldplay - 2020-01-28 The GRAMMY Salute To Prince, Los Angeles Convention Center, Los Angeles, CA, USA.ts
Format                                   : MPEG-TS
File size                                : 342 MiB
Duration                                 : 4 min 9 s
Overall bit rate mode                    : Variable
Overall bit rate                         : 11.5 Mb/s

Video
ID                                       : 256 (0x100)
Menu ID                                  : 1 (0x1)
Format                                   : AVC
Format/Info                              : Advanced Video Codec
Format profile                           : [email protected]
Format settings                          : CABAC / 4 Ref Frames
Format settings, CABAC                   : Yes
Format settings, Reference frames        : 4 frames
Codec ID                                 : 27
Duration                                 : 4 min 9 s
Bit rate mode                            : Constant
Bit rate                                 : 10 000 kb/s
Width                                    : 1 920 pixels
Height                                   : 1 080 pixels
Display aspect ratio                     : 16:9
Frame rate                               : 30.000 FPS
Color space                              : YUV
Chroma subsampling                       : 4:2:0
Bit depth                                : 8 bits
Scan type                                : Progressive
Bits/(Pixel*Frame)                       : 0.161
Stream size                              : 306 MiB (89%)
Color range                              : Limited
Color primaries                          : BT.709
Transfer characteristics                 : BT.709
Matrix coefficients                      : BT.709

Audio
ID                                       : 257 (0x101)
Menu ID                                  : 1 (0x1)
Format                                   : E-AC-3
Format/Info                              : Enhanced AC-3
Commercial name                          : Dolby Digital Plus
Codec ID                                 : 135
Duration                                 : 4 min 9 s
Bit rate mode                            : Constant
Bit rate                                 : 640 kb/s
Channel(s)                               : 6 channels
Channel layout                           : L R C LFE Ls Rs
Sampling rate                            : 48.0 kHz
Frame rate                               : 31.250 FPS (1536 SPF)
Compression mode                         : Lossy
Delay relative to video                  : -64 ms
Stream size                              : 19.0 MiB (6%)
Service kind                             : Complete Main

Menu
ID                                       : 4096 (0x1000)
Menu ID                                  : 1 (0x1)
Duration                                 : 4 min 9 s
List                                     : 256 (0x100) (AVC) / 257 (0x101) (E-AC-3)
Service name                             : Service01
Service provider                         : FFmpeg
Service type                             : digital television

  • Like 2
  • Love 1
 Share


×
×
  • Create New...