Jump to content
Search In
  • More options...
Find results that contain...
Find results in...
✨ STAY UP TO DATE WITH THE WORLD TOUR ✨

[2016-08-20] Rose Bowl, Pasadena, CA, USA [1080i | 15.5Mb/s]


2 Screenshots

About This File

Coldplay
Rose Bowl
Pasadena, CA, USA
August 20, 2016

Lineage: 91W (Galaxy 17) KU > TBS6983 > TSReader Pro 2.8.48 > VideoReDo > finished.ts

Video: H264 Video 1920x1080i 16:9 14.5 Mb/s 25.00 fps 8-bit 4:2:0
Audio: MP2 256 Kbps 48.0 KHz stereo

Setlist:
Intro (Charlie Chaplin speech)
01. A Head Full of Dreams
02. Yellow
03. Every Teardrop Is A Waterfall
04. The Scientist
05. Birds
06. Paradise

B-Stage:
07. Always In My Head
08. Magic
09. Everglow

A-Stage:
10. Clocks
11. Midnight
12. Charlie Brown
13. Hymn For The Weekend
14. Fix You
15. Heroes (David Bowie cover)
16. Viva La Vida
17. Adventure of A Lifetime

C-Stage:
Kaleidoscope
18. In My Place
19. Don't Panic
20. God Put A Smile Upon Your Face

A-Stage:
21. Amazing Day
22. A Sky Full of Stars
23. Up&Up
End Credits

Note: Hardcoded English Subtitles, Backhaul feed for exclusive webcast streamed in China and Philippines

Media Info:

 

General
ID                                       : 1 (0x1)
Complete name                            : Coldplay - 2016-08-20 Rose Bowl, Pasadena, CA, USA.ts
Format                                   : MPEG-TS
File size                                : 13.0 GiB
Duration                                 : 1 h 59 min
Overall bit rate mode                    : Variable
Overall bit rate                         : 15.5 Mb/s

Video
ID                                       : 33 (0x21)
Menu ID                                  : 1 (0x1)
Format                                   : AVC
Format/Info                              : Advanced Video Codec
Format profile                           : [email protected]
Format settings                          : CABAC / 4 Ref Frames
Format settings, CABAC                   : Yes
Format settings, Reference frames        : 4 frames
Codec ID                                 : 27
Duration                                 : 1 h 59 min
Bit rate                                 : 14.5 Mb/s
Width                                    : 1 920 pixels
Height                                   : 1 080 pixels
Display aspect ratio                     : 16:9
Frame rate                               : 25.000 FPS
Color space                              : YUV
Chroma subsampling                       : 4:2:0
Bit depth                                : 8 bits
Scan type                                : Interlaced
Scan type, store method                  : Separated fields
Scan order                               : Top Field First
Bits/(Pixel*Frame)                       : 0.280
Stream size                              : 12.1 GiB (93%)
Color range                              : Limited
Color primaries                          : BT.709
Transfer characteristics                 : BT.709
Matrix coefficients                      : BT.709

Audio
ID                                       : 34 (0x22)
Menu ID                                  : 1 (0x1)
Format                                   : MPEG Audio
Format version                           : Version 1
Format profile                           : Layer 2
Codec ID                                 : 3
Duration                                 : 1 h 59 min
Bit rate mode                            : Constant
Bit rate                                 : 256 kb/s
Channel(s)                               : 2 channels
Sampling rate                            : 48.0 kHz
Frame rate                               : 41.667 FPS (1152 SPF)
Compression mode                         : Lossy
Stream size                              : 219 MiB (2%)
Language                                 : English

  • Love 1
 Share


×
×
  • Create New...