Jump to content
Search In
  • More options...
Find results that contain...
Find results in...
✨ STAY UP TO DATE WITH THE WORLD TOUR ✨

[2017-07-06] Global Citizen Festival, Barclaycard Arena, Hamburg, Germany [1080i | 15.5Mb/s]


2 Screenshots

About This File

Coldplay
Global Citizen Festival
Barclaycard Arena
Hamburg, Germany
July 6, 2017

Lineage: 23.5E (Astra 3B) KU > Unknown > finished.ts

Video: H264 Video 1920x1080i 16:9 13.9 Mb/s 25.00 fps 8-bit 4:2:2
Audio: MP2 384 Kbps 48.0 KHz stereo

Setlist:
01. Paradise
02. Viva La Vida
03. Adventure of a Lifetime
04. Fix You
05. Something Just Like This
06. Yellow (with Shakira)
07. Chantaje (Shakira Cover) (with Shakira)
08. Me enamoré (Shakira Cover) (with Shakira)
09. A Sky Full of Stars (with Shakira)

Note: Captured by kmfan_ on ShareMania

Media Info:

 

General


ID                                       : 1 (0x1)
Complete name                            : Coldplay - 2017-07-06 Global Citizen Festival, Barclaycard Arena, Hamburg, Germany.ts
Format                                   : MPEG-TS
File size                                : 4.50 GiB
Duration                                 : 41 min 39 s
Overall bit rate mode                    : Variable
Overall bit rate                         : 15.5 Mb/s

 

Video
ID                                       : 512 (0x200)
Menu ID                                  : 1 (0x1)
Format                                   : AVC
Format/Info                              : Advanced Video Codec
Format profile                           : High 4:2:[email protected]
Format settings                          : CABAC / 4 Ref Frames
Format settings, CABAC                   : Yes
Format settings, Reference frames        : 4 frames
Format settings, GOP                     : M=3, N=25
Codec ID                                 : 27
Duration                                 : 41 min 39 s
Bit rate                                 : 13.9 Mb/s
Width                                    : 1 920 pixels
Height                                   : 1 080 pixels
Display aspect ratio                     : 16:9
Frame rate                               : 25.000 FPS
Color space                              : YUV
Chroma subsampling                       : 4:2:2
Bit depth                                : 8 bits
Scan type                                : Interlaced
Scan type, store method                  : Separated fields
Scan order                               : Top Field First
Bits/(Pixel*Frame)                       : 0.269
Stream size                              : 4.05 GiB (90%)
Color range                              : Limited
Color primaries                          : BT.709
Transfer characteristics                 : BT.709
Matrix coefficients                      : BT.709

 

Audio #1
ID                                       : 4112 (0x1010)
Menu ID                                  : 1 (0x1)
Format                                   : MPEG Audio
Format version                           : Version 1
Format profile                           : Layer 2
Codec ID                                 : 3
Duration                                 : 41 min 38 s
Bit rate mode                            : Constant
Bit rate                                 : 384 kb/s
Channel(s)                               : 2 channels
Sampling rate                            : 48.0 kHz
Frame rate                               : 41.667 FPS (1152 SPF)
Compression mode                         : Lossy
Delay relative to video                  : 46 ms
Stream size                              : 114 MiB (2%)
Language                                 : English

 

Audio #2
ID                                       : 4128 (0x1020)
Menu ID                                  : 1 (0x1)
Format                                   : MPEG Audio
Format version                           : Version 1
Format profile                           : Layer 2
Codec ID                                 : 3
Duration                                 : 41 min 39 s
Bit rate mode                            : Constant
Bit rate                                 : 384 kb/s
Channel(s)                               : 2 channels
Sampling rate                            : 48.0 kHz
Frame rate                               : 41.667 FPS (1152 SPF)
Compression mode                         : Lossy
Delay relative to video                  : 38 ms
Stream size                              : 114 MiB (2%)
Language                                 : English

 

Menu
ID                                       : 32 (0x20)
Menu ID                                  : 1 (0x1)
Duration                                 : 41 min 39 s
List                                     : 512 (0x200) (AVC) / 4112 (0x1010) (MPEG Audio, English) / 4128 (0x1020) (MPEG Audio, English)
Language                                 :  / English / English
Maximum bit rate                         : 200000000

  • Like 2
  • Thanks 2
  • Love 1
 Share


×
×
  • Create New...