Jump to content
Search In
  • More options...
Find results that contain...
Find results in...
✨ STAY UP TO DATE WITH THE WORLD TOUR ✨

[2000-08-01] The Barfly Sessions, The Monarch, London, England [576i | 7860kb/s]


2 Screenshots

About This File

Coldplay
The Barfly Sessions
The Monarch
London, England
August 1, 2000

Lineage: RFM TV on 19.2E (Astra 1H or 1F presumed) KU > Unknown > TMPGEnc DVD Author > DVD > Unknown > FFMPEG VOB to TS (codec copy)

Video: MPEG2 Video 720x576i 4:3 7277 kb/s 25.00 fps 8-bit 4:2:0
Audio: AC3 192 Kbps 48.0 KHz stereo

Setlist:
01. Spies
02. Shiver
03. Everything's Not Lost
04. Yellow
05. Trouble

Note: Originally broadcast on Channel 4 in the UK

Media Info:

 

General


ID                                       : 1 (0x1)
Complete name                            : /Volumes/LaCie/Media/Coldplaying Concerts/Coldplay - 2000-08-01 The Barfly Sessions, The Monarch, London, England/Coldplay - 2000-08-01 The Barfly Sessions, The Monarch, London, England.ts
Format                                   : MPEG-TS
File size                                : 1.44 GiB
Duration                                 : 26 min 10 s
Overall bit rate mode                    : Variable
Overall bit rate                         : 7 860 kb/s

Video
ID                                       : 256 (0x100)
Menu ID                                  : 1 (0x1)
Format                                   : MPEG Video
Format version                           : Version 2
Format profile                           : [email protected]
Format settings                          : CustomMatrix / BVOP
Format settings, BVOP                    : Yes
Format settings, Matrix                  : Custom
Format settings, GOP                     : Variable
Format settings, picture structure       : Frame
Codec ID                                 : 2
Duration                                 : 26 min 10 s
Bit rate mode                            : Variable
Bit rate                                 : 7 277 kb/s
Maximum bit rate                         : 7 450 kb/s
Width                                    : 720 pixels
Height                                   : 576 pixels
Display aspect ratio                     : 4:3
Frame rate                               : 25.000 FPS
Standard                                 : PAL
Color space                              : YUV
Chroma subsampling                       : 4:2:0
Bit depth                                : 8 bits
Scan type                                : Interlaced
Scan order                               : Top Field First
Compression mode                         : Lossy
Bits/(Pixel*Frame)                       : 0.702
Time code of first frame                 : 00:00:00:00
Time code source                         : Group of pictures header
Stream size                              : 1.33 GiB (93%)
Writing library                          : TMPGEnc DVD Author 3 Version. 3.1.2.176
Color primaries                          : BT.601 PAL
Transfer characteristics                 : BT.470 System B/G
Matrix coefficients                      : BT.470 System B/G

Audio
ID                                       : 257 (0x101)
Menu ID                                  : 1 (0x1)
Format                                   : AC-3
Format/Info                              : Audio Coding 3
Commercial name                          : Dolby Digital
Codec ID                                 : 129
Duration                                 : 26 min 10 s
Bit rate mode                            : Constant
Bit rate                                 : 192 kb/s
Channel(s)                               : 2 channels
Channel layout                           : L R
Sampling rate                            : 48.0 kHz
Frame rate                               : 31.250 FPS (1536 SPF)
Compression mode                         : Lossy
Stream size                              : 36.0 MiB (2%)
Service kind                             : Complete Main

Menu
ID                                       : 4096 (0x1000)
Menu ID                                  : 1 (0x1)
Duration                                 : 26 min 10 s
List                                     : 256 (0x100) (MPEG Video) / 257 (0x101) (AC-3)
Service name                             : Service01
Service provider                         : FFmpeg
Service type                             : digital television

  • Like 3
  • Thanks 1
 Share


×
×
  • Create New...