Jump to content
Search In
  • More options...
Find results that contain...
Find results in...
✨ STAY UP TO DATE WITH THE WORLD TOUR ✨

[2000-08-18] Bizarre Festival, Flughafen Niederrhein, Weeze, Germany [576i | 6369kb/s]


2 Screenshots

About This File

Coldplay
Bizarre Festival
Flughafen Niederrhein
Weeze, Germany
August 18, 2000

Lineage: Einsfestival broadcast stream - Tevii S464 DVB-S2 PCI Card(ProgDVBPro6) - Womble MPEG Video Wizard 5 > FFMPEG VOB to TS (codec copy) > finished.ts

Video: MPEG2 Video 720x576i 4:3 5602 kb/s 25.00 fps 8-bit 4:2:0
Audio: AC3 448 Kbps 48.0 KHz stereo

Setlist:
01. Spies
02. Don't Panic
03. Bigger Stronger
04. High Speed
05. Yellow
06. Trouble
07. Shiver
08. Everything's Not Lost

Note: Recorded from "Einsfestival" on August 19 2012

Media Info:

 

General


ID                                       : 1 (0x1)
Complete name                            : /Volumes/LaCie/Media/Coldplaying Concerts/Coldplay - 2000-08-18 Bizarre Festival, Flughafen Niederrhein, Weeze, Germany/Coldplay - 2000-08-18 Bizarre Festival, Flughafen Niederrhein, Weeze, Germany.ts
Format                                   : MPEG-TS
File size                                : 1.75 GiB
Duration                                 : 39 min 20 s
Overall bit rate mode                    : Variable
Overall bit rate                         : 6 369 kb/s

Video
ID                                       : 256 (0x100)
Menu ID                                  : 1 (0x1)
Format                                   : MPEG Video
Format version                           : Version 2
Format profile                           : [email protected]
Format settings                          : CustomMatrix / BVOP
Format settings, BVOP                    : Yes
Format settings, Matrix                  : Custom
Format settings, GOP                     : Variable
Format settings, picture structure       : Frame
Codec ID                                 : 2
Duration                                 : 23 h 54 min
Bit rate mode                            : Variable
Bit rate                                 : 5 602 kb/s
Maximum bit rate                         : 9 802 kb/s
Width                                    : 720 pixels
Height                                   : 576 pixels
Display aspect ratio                     : 4:3
Active Format Description                : Full frame 16:9 image
Frame rate                               : 25.000 FPS
Standard                                 : PAL
Color space                              : YUV
Chroma subsampling                       : 4:2:0
Bit depth                                : 8 bits
Scan type                                : Interlaced
Scan order                               : Top Field First
Compression mode                         : Lossy
Bits/(Pixel*Frame)                       : 0.540
Time code of first frame                 : 00:00:00:00
Time code source                         : Group of pictures header
GOP, Open/Closed                         : Open
GOP, Open/Closed of first frame          : Closed
Stream size                              : 56.1 GiB
Writing library                          : (c) 1998-2011 Womble Multimedia, Inc. / MPEG Video Wizard DVD 5.0.1.100 (03/2011) / Dec 15 2011

Audio
ID                                       : 257 (0x101)
Menu ID                                  : 1 (0x1)
Format                                   : AC-3
Format/Info                              : Audio Coding 3
Commercial name                          : Dolby Digital
Codec ID                                 : 129
Duration                                 : 39 min 20 s
Bit rate mode                            : Constant
Bit rate                                 : 448 kb/s
Channel(s)                               : 2 channels
Channel layout                           : L R
Sampling rate                            : 48.0 kHz
Frame rate                               : 31.250 FPS (1536 SPF)
Compression mode                         : Lossy
Stream size                              : 126 MiB (7%)
Service kind                             : Complete Main

Menu
ID                                       : 4096 (0x1000)
Menu ID                                  : 1 (0x1)
Duration                                 : 39 min 20 s
List                                     : 256 (0x100) (MPEG Video) / 257 (0x101) (AC-3)
Service name                             : Service01
Service provider                         : FFmpeg
Service type                             : digital television

  • Like 1
 Share


×
×
  • Create New...