Jump to content
Search In
  • More options...
Find results that contain...
Find results in...
✨ STAY UP TO DATE WITH THE WORLD TOUR ✨

[2011-06-25] Glastonbury Festival, Worthy Farm, Pilton, England [1080i | 47.5Mb/s]


2 Screenshots

About This File

Coldplay
Glastonbury Festival
Worthy Farm
Pilton, England
June 25, 2011

Lineage: Unknown > feed.ts

Video: MPEG2 Video 1920x1080i 16:9 44.9 Mb/s 25.00 fps 8-bit 4:2:0
Audio: MP2 256 Kbps 48.0 KHz stereo

Setlist:
01. Mylo Xyloto
02. Hurts Like Heaven
03. Yellow
04. In My Place
05. Major Minus
06. Lost!
07. The Scientist
08. Shiver
09. Violet Hill
10. God Put a Smile Upon Your Face
11. Everything's Not Lost
12. Us Against The World
13. Politik
14. Viva la Vida
15. Charlie Brown
16. Life Is For Living

Encore:
17. Clocks
18. Fix You ("What a Wonderful World" intro w/ alternate lyrics)
19. Every Teardrop Is a Waterfall

Media Info:

 

General


ID                                       : 1 (0x1)
Format                                   : MPEG-TS
File size                                : 30.1 GiB
Duration                                 : 1 h 30 min
Overall bit rate mode                    : Variable
Overall bit rate                         : 47.5 Mb/s

Video
ID                                       : 308 (0x134)
Menu ID                                  : 1 (0x1)
Format                                   : MPEG Video
Format version                           : Version 2
Format profile                           : [email protected]
Format settings                          : CustomMatrix / BVOP
Format settings, BVOP                    : Yes
Format settings, Matrix                  : Custom
Format settings, GOP                     : M=3, N=12
Format settings, picture structure       : Frame
Codec ID                                 : 2
Duration                                 : 1 h 30 min
Bit rate mode                            : Variable
Bit rate                                 : 44.9 Mb/s
Maximum bit rate                         : 46.1 Mb/s
Width                                    : 1 920 pixels
Height                                   : 1 080 pixels
Display aspect ratio                     : 16:9
Frame rate                               : 25.000 FPS
Color space                              : YUV
Chroma subsampling                       : 4:2:0
Bit depth                                : 8 bits
Scan type                                : Interlaced
Scan order                               : Top Field First
Compression mode                         : Lossy
Bits/(Pixel*Frame)                       : 0.866
Time code of first frame                 : 00:00:00:00
Time code source                         : Group of pictures header
GOP, Open/Closed                         : Open
GOP, Open/Closed of first frame          : Closed
Stream size                              : 28.5 GiB (95%)

Audio
ID                                       : 256 (0x100)
Menu ID                                  : 1 (0x1)
Format                                   : MPEG Audio
Format version                           : Version 1
Format profile                           : Layer 2
Codec ID                                 : 3
Duration                                 : 1 h 30 min
Bit rate mode                            : Constant
Bit rate                                 : 256 kb/s
Channel(s)                               : 2 channels
Sampling rate                            : 48.0 kHz
Frame rate                               : 41.667 FPS (1152 SPF)
Compression mode                         : Lossy
Delay relative to video                  : 6 ms
Stream size                              : 166 MiB (1%)
Language                                 : English

  • Love 3
 Share


×
×
  • Create New...