Jump to content
Search In
  • More options...
Find results that contain...
Find results in...
✨ STAY UP TO DATE WITH THE WORLD TOUR ✨

[2016-09-04] Made in America Festival, Benjamin Franklin Parkway, Philadelphia, PA, USA [1080i | 16.2Mb/s]


2 Screenshots

About This File

Coldplay
Budweiser Made in America Festival
Benjamin Franklin Parkway
Philadelphia, PA, USA
September 4, 2016

Lineage: Feed > Unknown > .ts

Video: H264 Video 1920x1080i 16:9 15.0 Mb/s 29.97 fps 8-bit 4:2:0
Audio: MPEG2 384 Kbps 48.0 KHz stereo

Setlist:
01. A Head Full of Dreams (extended intro with Charlie Chaplin speech)
02. Yellow
03. Every Teardrop Is a Waterfall
04. The Scientist (with Gene Wilder "Pure Imagination" tribute at the end)
05. Birds 
06. Paradise (with snippet of Beyoncé's " Sorry"; Tiësto remix outro)
07. Everglow 
08. Clocks
09. Midnight (partial)
10. Charlie Brown
11. Hymn For The Weekend
12. Fix You
13. "Heroes" (David Bowie cover)
14. Viva la Vida
15. Adventure of a Lifetime

B-Stage
Kaleidoscope
16. A Sky Full of Stars
17. Up&Up

Media Info:

 

General


ID                                       : 1 (0x1)
Format                                   : MPEG-TS
File size                                : 10.2 GiB
Duration                                 : 1 h 30 min
Overall bit rate mode                    : Variable
Overall bit rate                         : 16.2 Mb/s

Video
ID                                       : 308 (0x134)
Menu ID                                  : 1 (0x1)
Format                                   : AVC
Format/Info                              : Advanced Video Codec
Format profile                           : [email protected]
Format settings                          : CABAC / 4 Ref Frames
Format settings, CABAC                   : Yes
Format settings, Reference frames        : 4 frames
Codec ID                                 : 27
Duration                                 : 1 h 30 min
Bit rate                                 : 15.0 Mb/s
Width                                    : 1 920 pixels
Height                                   : 1 080 pixels
Display aspect ratio                     : 16:9
Frame rate                               : 29.970 (30000/1001) FPS
Color space                              : YUV
Chroma subsampling                       : 4:2:0
Bit depth                                : 8 bits
Scan type                                : Interlaced
Scan type, store method                  : Separated fields
Scan order                               : Top Field First
Bits/(Pixel*Frame)                       : 0.241
Stream size                              : 9.49 GiB (93%)
Color range                              : Limited
Color primaries                          : BT.709
Transfer characteristics                 : BT.709
Matrix coefficients                      : BT.709

Audio
ID                                       : 256 (0x100)
Menu ID                                  : 1 (0x1)
Format                                   : MPEG Audio
Format version                           : Version 1
Format profile                           : Layer 2
Codec ID                                 : 3
Duration                                 : 1 h 30 min
Bit rate mode                            : Constant
Bit rate                                 : 384 kb/s
Channel(s)                               : 2 channels
Sampling rate                            : 48.0 kHz
Frame rate                               : 41.667 FPS (1152 SPF)
Compression mode                         : Lossy
Stream size                              : 249 MiB (2%)
Language                                 : English

  • Like 1
  • Love 2
 Share


×
×
  • Create New...