Jump to content
Search In
  • More options...
Find results that contain...
Find results in...
✨ STAY UP TO DATE WITH THE WORLD TOUR ✨

[2021-12-07] BBC Radio 2 In Concert, BBC Radio Theatre, London, England [720p | 4990kb/s]


2 Screenshots

About This File

Coldplay
BBC Radio 2 In Concert
BBC Radio Theatre
London, England
Dec 7, 2021

Lineage: BBC iPlayer > get_iplayer > file.mp4

Video: H264 Video 1280x720p 16:9 4990 kb/s 50.00 fps 8-bit 4:2:0
Audio: AAC LC 128 Kbps 48.0 KHz stereo

Setlist:
Music of The Spheres
01. Higher Power
02. Clocks
03. Fix You
04. Viva La Vida
05. Human Heart (with Jacob Collier and We Are KING)
06. People of The Pride
07. Yellow (Acoustic)
08. My Universe
09. A Sky Full of Stars
10. Coloratura
Encore:
11. Magic
12. Christmas Lights

Notes: Magic and Christmas Lights were also performed as an encore but not apart of the original broadcast. However, they were included in a this version of the on-demand video.

Media Info:

Spoiler

 

General
Format                                   : MPEG-4
Format profile                           : Base Media
Codec ID                                 : isom (isom/iso2/avc1/mp41)
File size                                : 2.45 GiB
Duration                                 : 1 h 8 min
Overall bit rate mode                    : Variable
Overall bit rate                         : 5 130 kb/s
Collection                               : Radio 2 In Concert
Album                                    : Radio 2 In Concert
Album/Performer                          : BBC TV
Track name                               : Coldplay
Grouping                                 : Music,Performances & Events,Classic Pop & Rock
Performer                                : BBC Radio 2
Composer                                 : BBC iPlayer
Genre                                    : Music
ContentType                              : TV Show
Description                              : Coldplay perform for Radio 2 In Concert.
Recorded date                            : UTC 2021-12-07 19:00:00
Tagged date                              : UTC 2021-12-10 17:51:33
Copyright                                : 2021 British Broadcasting Corporation, all rights reserved
Cover                                    : Yes
Lyrics                                   : Coldplay perform for Radio 2 In Concert. /  / PLAY: https://www.bbc.co.uk/iplayer/episode/p0b2xmw0 /  / INFO: https://www.bbc.co.uk/programmes/p0b2xmw0
Comment                                  : Coldplay perform for Radio 2 In Concert.
HDVideo                                  : Yes
Part_ID                                  : 202112071900
TVNetworkName                            : BBC Radio 2
LongDescription                          : Coldplay perform for Radio 2 In Concert. /  / PLAY: https://www.bbc.co.uk/iplayer/episode/p0b2xmw0 /  / INFO: https://www.bbc.co.uk/programmes/p0b2xmw0

Video
ID                                       : 1
Format                                   : AVC
Format/Info                              : Advanced Video Codec
Format profile                           : [email protected]
Format settings                          : CABAC / 4 Ref Frames
Format settings, CABAC                   : Yes
Format settings, Reference frames        : 4 frames
Codec ID                                 : avc1
Codec ID/Info                            : Advanced Video Coding
Duration                                 : 1 h 8 min
Source duration                          : 1 h 8 min
Bit rate                                 : 4 990 kb/s
Width                                    : 1 280 pixels
Height                                   : 720 pixels
Display aspect ratio                     : 16:9
Frame rate mode                          : Variable
Frame rate                               : 50.000 FPS
Minimum frame rate                       : 25.000 FPS
Maximum frame rate                       : 90 000.000 FPS
Color space                              : YUV
Chroma subsampling                       : 4:2:0
Bit depth                                : 8 bits
Scan type                                : Progressive
Bits/(Pixel*Frame)                       : 0.108
Stream size                              : 2.39 GiB (97%)
Source stream size                       : 2.39 GiB (97%)
Color range                              : Limited
Color primaries                          : BT.709
Transfer characteristics                 : BT.709
Matrix coefficients                      : BT.709
mdhd_Duration                            : 4105880
Codec configuration box                  : avcC

Audio
ID                                       : 2
Format                                   : AAC LC
Format/Info                              : Advanced Audio Codec Low Complexity
Codec ID                                 : mp4a-40-2
Duration                                 : 1 h 8 min
Bit rate mode                            : Variable
Bit rate                                 : 125 kb/s
Maximum bit rate                         : 129 kb/s / 129 kb/s
Channel(s)                               : 2 channels
Channel layout                           : L R
Sampling rate                            : 48.0 kHz
Frame rate                               : 46.875 FPS (1024 SPF)
Compression mode                         : Lossy
Stream size                              : 61.4 MiB (2%)
Language                                 : English
Default                                  : Yes
Alternate group                          : 1

 

 

  • Like 1
 Share


×
×
  • Create New...