Jump to content
🛒 SHOP THE NEW CHRISTMAS LIGHTS COLLECTION 🛒

1991talk

Members
  • Content Count

    40
  • Joined

  • Last visited

Community Reputation

17 Good

4 Followers

About 1991talk

  • Rank
    Always In my Head
  • Birthday 01/06/1997

Converted

  • Country
    Mexico
  • Gender
    Male
  • Twitter
    @cmda1997
  • Coldplay concerts
    3
  • Favourite Coldplay member?
    Will
  • Your favourite Coldplay album?
    X&Y
  • Favourite Coldplay song
    Talk
  • Country Flag
    Mexico
  • Occupation
    musician / university student

Recent Profile Visitors

The recent visitors block is disabled and is not being shown to other users.

  1. 1991talk

    Area Mexicana

    quien diria que despues de mas de 13 años, aun existiera este post, de echo, aun recuerdo cuando recien comenzaba a hablar por estos medios jajajajaja
  2. friends, yesterday I saw the live with the 5.1 audio and like you need something, and wanted to propose something, what if we organize ourselves, and we create a new 5.1 from existing tracks, to make the experience more enjoyable Audiovisual, it would be a matter of complementing some sound effect, or some missing instrument based on what we already have, I do not know, I think we deserve to improve the live one the best, since the quality that the producers give us, is bad, I do not know how you see it
  3. new technicals Format : Matroska File size : 4.51 GiB Duration : 2h 0mn Overall bit rate : 5 374 Kbps Encoded date : UTC 2018-12-12 13:11:36 Writing application : mkvmerge v28.2.0 ('The Awakening') 64-bit Writing library : libebml v1.3.6 + libmatroska v1.4.9 Video ID : 2 Format : AVC Format/Info : Advanced Video Codec Format profile : [email protected] Format settings, CABAC : Yes Format settings, ReFrames : 5 frames Muxing mode : Container [email protected] Codec ID : V_MPEG4/ISO/AVC Duration : 2h 0mn Width : 1 920 pixels Height : 816 pixels Display aspect ratio : 2.35:1 Frame rate : 25.000 fps Color space : YUV Chroma subsampling : 4:2:0 Bit depth : 8 bits Scan type : Progressive Color primaries : BT.709-5, BT.1361, IEC 61966-2-4, SMPTE RP177 Transfer characteristics : BT.709-5, BT.1361 Matrix coefficients : BT.709-5, BT.1361, IEC 61966-2-4 709, SMPTE RP177 Audio #1 ID : 1 Format : AAC Format/Info : Advanced Audio Codec Format version : Version 4 Format profile : LC Format settings, SBR : No Codec ID : A_AAC Duration : 2h 0mn Channel(s) : 2 channels Channel positions : Front: L R Sampling rate : 48.0 KHz Video delay : -40ms Audio #2 ID : 3 Format : AC-3 Format/Info : Audio Coding 3 Mode extension : CM (complete main) Codec ID : A_AC3 Duration : 2h 0mn Bit rate mode : Constant Bit rate : 448 Kbps Channel(s) : 6 channels Channel positions : Front: L C R, Side: L R, LFE Sampling rate : 48.0 KHz Bit depth : 16 bits Video delay : -29ms Stream size : 385 MiB (8%) Menu 00:00:00.000 : en:A Head Full Of Dreams (Live in São Paulo) 00:05:38.480 : en:Yellow (Live In São Paulo) 00:10:33.480 : en:Every Teardrop Is A Waterfall (Live In São Paulo) 00:14:37.000 : en:The Scientist (Live In São Paulo) 00:20:53.280 : en:Birds (Live In São Paulo) 00:25:24.400 : en:Paradise (Live In São Paulo) 00:32:13.760 : en:Always In My Head (Live In São Paulo) 00:35:43.480 : en:Magic (Live In São Paulo) 00:42:45.560 : en:Everglow (Live In São Paulo) 00:47:11.640 : en:Clocks (Live In São Paulo) 00:51:43.400 : en:Midnight (Live In São Paulo) 00:53:33.520 : en:Charlie Brown (Live In São Paulo) 00:57:55.599 : en:Hymn For The Weekend (Live In São Paulo) 01:02:38.479 : en:Fix You (Live In São Paulo) 01:08:35.439 : en:Viva La Vida (Live In São Paulo) 01:12:44.999 : en:Adventure Of A Lifetime (Live In São Paulo) 01:17:38.359 : en:Colour Spectrum (Live In São Paulo) 01:19:35.319 : en:Us Against The World (Live In São Paulo) 01:26:41.399 : en:In My Place (Live In São Paulo) 01:31:25.959 : en:Paulistanos (Live In São Paulo) 01:36:41.759 : en:Something Just Like This (Live In São Paulo) 01:40:53.759 : en:A Sky Full Of Stars (Live In São Paulo) 01:45:48.799 : en:Up&Up (Live In São Paulo) 01:56:10.479 : en:End Credits (Live In São Paulo)
  4. Thecnical Dates Format : Matroska File size : 3.75 GiB Duration : 2h 0mn Overall bit rate : 4 470 Kbps Encoded date : UTC 2018-12-08 16:47:31 Writing application : mkvmerge v25.0.0 ('Prog Noir') 32-bit Writing library : libebml v1.3.6 + libmatroska v1.4.9 Video ID : 1 Format : AVC Format/Info : Advanced Video Codec Format profile : [email protected] Format settings, CABAC : No Format settings, ReFrames : 2 frames Muxing mode : Container [email protected] Codec ID : V_MPEG4/ISO/AVC Duration : 2h 0mn Bit rate : 3 933 Kbps Width : 960 pixels Height : 544 pixels Display aspect ratio : 2.35:1 Frame rate : 25.000 fps Color space : YUV Chroma subsampling : 4:2:0 Bit depth : 8 bits Scan type : Progressive Bits/(Pixel*Frame) : 0.301 Stream size : 3.30 GiB (88%) Color primaries : BT.709-5, BT.1361, IEC 61966-2-4, SMPTE RP177 Transfer characteristics : BT.709-5, BT.1361 Matrix coefficients : BT.709-5, BT.1361, IEC 61966-2-4 709, SMPTE RP177 Audio ID : 2 Format : AC-3 Format/Info : Audio Coding 3 Mode extension : CM (complete main) Codec ID : A_AC3 Duration : 2h 0mn Bit rate mode : Constant Bit rate : 448 Kbps Channel(s) : 6 channels Channel positions : Front: L C R, Side: L R, LFE Sampling rate : 48.0 KHz Bit depth : 16 bits Video delay : 21ms Stream size : 385 MiB (10%) Menu 00:00:00.000 : en:A Head Full Of Dreams (Live in São Paulo) 00:05:38.480 : en:Yellow (Live In São Paulo) 00:10:33.480 : en:Every Teardrop Is A Waterfall (Live In São Paulo) 00:14:36.999 : en:The Scientist (Live In São Paulo) 00:20:53.279 : en:Birds (Live In São Paulo) 00:25:24.399 : en:paradise (Live In São Paulo) 00:32:13.759 : en:Always In My Head (Live In São Paulo) 00:35:43.478 : en:Magic (Live In São Paulo) 00:42:45.557 : en:Everglow (Live In São Paulo) 00:47:11.636 : en:Clocks (Live In São Paulo) 00:51:43.395 : en:Midnight (Live In São Paulo) 00:53:33.514 : en:Charlie Brown (Live In São Paulo) 00:57:55.593 : en:Hymn For The Weekend (Live In São Paulo) 01:02:38.473 : en:Fix You (Live In São Paulo) 01:08:35.432 : en:Viva La Vida (Live In São Paulo) 01:12:44.992 : en:Adventure Of A Lifetime (Live In São Paulo) 01:17:38.351 : en:Colour Spectrum (Live In São Paulo) 01:19:35.311 : en:Us Against The World (Live In São Paulo) 01:26:41.390 : en:In My Place (Live In São Paulo) 01:31:25.950 : en:paulistanos (Live In São Paulo) 01:36:41.750 : en:Something Just Like This (Live In São Paulo) 01:40:53.750 : en:A Sky Full Of Stars (Live In São Paulo) 01:45:48.789 : en:Up&Up (Live In São Paulo) 01:56:10.469 : en:End Credits (Live In São Paulo)
  5. Friends, I have problems with the crawlers, all those who send you a link both a while ago and yesterday, please reject it, I will try to restart the file again so you can download it
  6. who would like to download it and verify on their own if they can do something to reproduce it, would be a great help, I already downloaded it and downloaded it from itunes but still the same, I pass them via the torrent file so they can download it, just if I ask you for discretion, because although I do not think there are any problems with copyrigth, if you wanted to preserve your anonymity as much as possible, just stay in the colplaying community
  7. This is the technical sheet that I was able to draw with MEDIA INFO Format : MPEG-4 Codec ID : M4V File size : 4.17 GiB Duration : 2h 0mn Overall bit rate : 4 969 Kbps Movie name : Coldplay: Live In São Paulo Performer : Coldplay Genre : Concert Films Encoded date : UTC 2018-12-07 08:00:00 Tagged date : UTC 2018-11-21 11:57:51 Cover : Yes cnID : 1440072865 atID : 471744 geID : 4422 desc : Long-term Coldplay collaborator Mat Whitecross directs 'Live In São Paulo' an exhilarating concert film captured at the climax of the band's record-breaking 'A Head Full Of Dreams Tour' hdvd : 2 stik : 9 purd : 2018-12-07 01:21:56 sonm : Coldplay: Live In São Paulo soar : Coldplay iTunEXTC : cl-movie|Sin Calificación|900| ldes : Long-term Coldplay collaborator Mat Whitecross directs 'Live In São Paulo' an exhilarating concert film captured at the climax of the band's record-breaking 'A Head Full Of Dreams Tour' iTunMOVI : <?xml version="1.0" encoding="UTF-8" standalone="no"?> / <!DOCTYPE plist PUBLIC "-//Apple Computer//DTD PLIST 1.0//EN" "http://www.apple.com/DTDs/PropertyList-1.0.dtd"> / <plist version="1.0"> / <dict> / <key>studio</key><string>Parlophone UK</string> / <key>cast</key> / <array> / </array> / <key>directors</key> / <array> / </array> / <key>codirectors</key> / <array> / </array> / <key>producers</key> / <array> / </array> / <key>screenwriters</key> / <array> / </array> / </dict> / </plist> Video #1 ID : 1 Format : AVC Format/Info : Advanced Video Codec Format profile : [email protected] Format settings, CABAC : Yes Format settings, ReFrames : 5 frames Codec ID : drmi Duration : 2h 0mn Bit rate mode : Variable Bit rate : 4 796 Kbps Width : 1 920 pixels Height : 816 pixels Display aspect ratio : 2.35:1 Frame rate mode : Constant Frame rate : 25.000 fps Color space : YUV Chroma subsampling : 4:2:0 Bit depth : 8 bits Scan type : Progressive Bits/(Pixel*Frame) : 0.122 Stream size : 4.02 GiB (97%) Title : Core Media Video Language : English Encoded date : UTC 2018-11-21 11:57:37 Tagged date : UTC 2018-11-21 11:57:51 Color primaries : BT.709-5, BT.1361, IEC 61966-2-4, SMPTE RP177 Transfer characteristics : BT.709-5, BT.1361 Matrix coefficients : BT.709-5, BT.1361, IEC 61966-2-4 709, SMPTE RP177 Video #2 ID : 5 Format : M-JPEG Codec ID : jpeg Duration : 2h 0mn Bit rate mode : Variable Bit rate : 5 691 bps Width : 640 pixels Height : 272 pixels Display aspect ratio : 1.855 Frame rate mode : Variable Frame rate : 0.003 fps Minimum frame rate : 0.002 fps Maximum frame rate : 0.009 fps Bits/(Pixel*Frame) : 10.897 Stream size : 5.43 MiB (0%) Title : Core Media Video Encoded date : UTC 2018-11-21 11:57:37 Tagged date : UTC 2018-11-21 11:57:51 Audio ID : 2 Format : AAC Format/Info : Advanced Audio Codec Format version : Version 4 Format profile : LC Format settings, SBR : No Codec ID : 40 Duration : 2h 0mn Bit rate mode : Variable Bit rate : 160 Kbps Maximum bit rate : 218 Kbps Channel(s) : 2 channels Channel positions : Front: L R Sampling rate : 48.0 KHz Bit depth : 16 bits Stream size : 138 MiB (3%) Title : Core Media Audio Language : English Encoded date : UTC 2018-11-21 11:57:37 Tagged date : UTC 2018-11-21 11:57:51 Encryption : iTunes Text ID : 4 Format : Timed text Codec ID : tx3g Duration : 2h 0mn Bit rate mode : Variable Bit rate : 2 bps Stream size : 1.36 KiB (0%) Title : Core Media Text Language : English Encoded date : UTC 2018-11-21 11:57:37 Tagged date : UTC 2018-11-21 11:57:51
  8. has problems with playback, I've already tested it with different players like the VLC, MPC, and iTunes, but I only see the file information, the chapters, but it does not allow me to see the content
  9. friends, I have a problem with the file, it is supposed to be seen on iTunes, but since I downloaded it, it does not play anything, I downloaded it again, but it's still the same, given the size of the movie, I think I'll pass it on, if the forum allows it, via utorrent, I will wait for confirmation if you allow me to share the torrent file
  10. Friends, now that I've been able to listen to the albums, I just saw one, maybe curiosity, and it's that in the 2 concerts, the one in Tokyo and the LIve Buenos Aires, the song Something Just Like That, seems similar to me, or rather , identical in both albums, with some variations in the sounds of the environment, I do not know if you can see if it is equal or not .. .
×
×
  • Create New...